extratorrent2.cc - A Fan Made Alternative Login   |   Register
Important Information
Registrations are open now
-------------------------------------

Please click here to register with Extratorrent2 to recieve latest updates, add bookmarks and to post comments.

-------------------------------------

Your login details will work on both Extratorrent2.cc and Extra2.to

Friends
Friends

1) Filebebo
-------------------------------------
2) MoviesDig
-------------------------------------
3) Torrentz2.cc
-------------------------------------
4) Torrents.me

Extratorrent2 > Categories > Movies > The Big Stick 2017 10bit hevc-d3g. torrent


Browse Movies torrents

The Big Stick 2017 10bit hevc-d3g. torrent


Download torrent: Download The Big Stick 2017 10bit hevc-d3g. torrent Magnet link Bookmark Torrent: The Big Stick 2017 10bit hevc-d3g.   The Big Stick 2017 10bit hevc-d3g. torrent
Info hash: E031E6F68EC0720EC9F64B6F842C35ACCEB20324
Category: Categories > Movies
Trackers:
View all torrent trackers >
Health:
 seeds: 1 ,  leechers: 6 |  Update >
Torrent language: English English
Total Size: 2.4 GB
Files List:
1    View torrent files >
Uploader:
showstopper
Torrent added: September 12, 2017, 11:02 pm
IMDB: http://www.imdb.com/title/tt6924414
Users rating: ---, not rated. please login to rate.

Download The Big Stick 2017 10bit hevc-d3g. torrent



Torrent Description

The Big Stick 2017 10bit hevc-d3g.

ImDb: http://www.imdb.com/title/tt6924414



Complete name : The Big Stick 2017 BluRay 10Bit 1080p DD5.1 H265-d3g.mkv
Format : Matroska
Format version : Version 4 / Version 2
File size : 2.37 GiB
Duration : 1 h 59 min
Overall bit rate : 2 840 kb/s
Movie name : The Big Stick 2017 BluRay 10Bit 1080p DD5.1 H265-d3g
Encoded date : UTC 2017-09-11 08:52:45
Writing application : DVDFab 10.0.5.7
Writing library : libebml v1.3.4 + libmatroska v1.4.5

Video
ID : 1
Format : HEVC
Format/Info : High Efficiency Video Coding
Format profile : Main @Main
Codec ID : V_MPEGH/ISO/HEVC
Duration : 1 h 59 min
Bit rate : 2 360 kb/s
Width : 1 920 pixels
Height : 1 036 pixels
Display aspect ratio : 1.85:1
Frame rate mode : Constant
Frame rate : 23.976 (24000/1001) FPS
Color space : YUV
Chroma subsampling : 4:2:0
Bit depth : 10 bits
Bits/(Pixel*Frame) : 0.049
Stream size : 1.97 GiB (83%)
Default : Yes
Forced : No
Color range : Limited
Color primaries : BT.709
Transfer characteristics : BT.709
Matrix coefficients : BT.709

Audio
ID : 2
Format : AC-3
Format/Info : Audio Coding 3
Format settings, Endianness : Big
Codec ID : A_AC3
Duration : 1 h 59 min
Bit rate mode : Constant
Bit rate : 448 kb/s
Channel(s) : 6 channels
Channel positions : Front: L C R, Side: L R, LFE
Sampling rate : 48.0 kHz
Frame rate : 31.250 FPS (1536 spf)
Bit depth : 16 bits
Compression mode : Lossy
Stream size : 383 MiB (16%)
Language : English
Service kind : Complete Main
Default : Yes
Forced : No

Text #1
ID : 3
Format : VobSub
Codec ID : S_VOBSUB
Codec ID/Info : Picture based subtitle format used on DVDs
Duration : 1 h 57 min
Bit rate : 18.8 kb/s
Count of elements : 2706
Stream size : 15.9 MiB (1%)
Language : English
Default : No
Forced : No

Text #2
ID : 4
Format : VobSub
Codec ID : S_VOBSUB
Codec ID/Info : Picture based subtitle format used on DVDs
Duration : 1 h 58 min
Bit rate : 13.6 kb/s
Count of elements : 1942
Stream size : 11.5 MiB (0%)
Language : Spanish
Default : No
Forced : No

Menu
00:00:00.000 : en:(01)00:00:00:000
00:07:16.310 : en:(02)00:07:16:310
00:13:40.694 : en:(03)00:13:40:694
00:21:59.818 : en:(04)00:21:59:818
00:29:05.577 : en:(05)00:29:05:577
00:37:19.403 : en:(06)00:37:19:403
00:45:03.158 : en:(07)00:45:03:158
00:53:08.768 : en:(08)00:53:08:768
01:00:37.425 : en:(09)01:00:37:425
01:08:40.574 : en:(10)01:08:40:574
01:14:45.939 : en:(11)01:14:45:939
01:22:43.667 : en:(12)01:22:43:667
01:31:03.040 : en:(13)01:31:03:040
01:38:32.323 : en:(14)01:38:32:323
01:46:52.155 : en:(15)01:46:52:155
01:57:49.395 : en:(16)01:57:49:395






Click To View Screenshot

Click To View Screenshot

Click To View Screenshot


Download The Big Stick 2017 10bit hevc-d3g. torrent




Comments   (please login to add your comment!)


Home - Browse Torrents - Our official mirror : extra2.to

Made with love by an Extratorrent Fan!