extratorrent2.cc - A Fan Made Alternative Login   |   Register
Important Information
Registrations are open now
-------------------------------------

Please click here to register with Extratorrent2 to recieve latest updates, add bookmarks and to post comments.

-------------------------------------

Your login details will work on both Extratorrent2.cc and Extra2.to

Friends
Friends

1) Filebebo
-------------------------------------
2) MoviesDig
-------------------------------------
3) Torrentz2.cc
-------------------------------------
4) Torrents.me

Extratorrent2 > Categories > Movies > A Study in Terror 1965 10bit hevc-d3g. torrent


Browse Movies torrents

A Study in Terror 1965 10bit hevc-d3g. torrent


A Study in Terror (1965)
Name: A Study in Terror
Released Year: 1965
Runtime: 95 mins
Gener: Crime, Mystery, Thriller
Director: James Hill
Country: UK
IMDB Rating: 6.6/10
Plot: Sherlock Holmes and Dr. Watson join the hunt for the notorious serial killer, Jack The Ripper.

Download torrent: Download A Study in Terror 1965 10bit hevc-d3g. torrent Magnet link Bookmark Torrent: A Study in Terror 1965 10bit hevc-d3g.   A Study in Terror 1965 10bit hevc-d3g. torrent
Info hash: AFBDD6F0843368E72A40DD4D5D2830B136C83DFA
Category: Categories > Movies
Trackers:
View all torrent trackers >
Health:
 seeds: 2 ,  leechers: 7 |  Update >
Torrent language: English English
Total Size: 2.0 GB
Files List:
1    View torrent files >
Uploader:
showstopper
Torrent added: November 13, 2017, 2:54 am
IMDB: http://www.imdb.com/title/tt0059764
Users rating: ---, not rated. please login to rate.

Download A Study in Terror 1965 10bit hevc-d3g. torrent



Torrent Description

A Study in Terror 1965 10bit hevc-d3g.

ImDb: http://www.imdb.com/title/tt0059764



Complete name : A Study in Terror 1965 10Bit 1080p AC-3 H265-d3g.mkv
Format : Matroska
Format version : Version 2
File size : 2.02 GiB
Duration : 1 h 34 min
Overall bit rate : 3 042 kb/s
Movie name : A Study in Terror 1965 10Bit 1080p AC-3 H265-d3g
Encoded date : UTC 2017-11-10 18:09:20
Writing application : DVDFab 10.0.6.5
Writing library : libebml v1.3.4 + libmatroska v1.4.5

Video
ID : 1
Format : HEVC
Format/Info : High Efficiency Video Coding
Format profile : Main @High
Codec ID : V_MPEGH/ISO/HEVC
Duration : 1 h 34 min
Bit rate : 2 841 kb/s
Width : 1 912 pixels
Height : 1 080 pixels
Display aspect ratio : 16:9
Frame rate mode : Constant
Frame rate : 23.976 (24000/1001) FPS
Color space : YUV
Chroma subsampling : 4:2:0
Bit depth : 10 bits
Bits/(Pixel*Frame) : 0.057
Stream size : 1.88 GiB (93%)
Default : Yes
Forced : No
Color range : Limited
Color primaries : BT.709
Transfer characteristics : BT.709
Matrix coefficients : BT.709

Audio
ID : 2
Format : AC-3
Format/Info : Audio Coding 3
Format settings, Endianness : Big
Codec ID : A_AC3
Duration : 1 h 34 min
Bit rate mode : Constant
Bit rate : 192 kb/s
Channel(s) : 2 channels
Channel positions : Front: L R
Sampling rate : 48.0 kHz
Frame rate : 31.250 FPS (1536 spf)
Bit depth : 16 bits
Compression mode : Lossy
Stream size : 130 MiB (6%)
Language : English
Service kind : Complete Main
Default : Yes
Forced : No

Text
ID : 3
Format : VobSub
Codec ID : S_VOBSUB
Codec ID/Info : Picture based subtitle format used on DVDs
Duration : 1 h 33 min
Bit rate : 7 477 b/s
Count of elements : 746
Stream size : 5.00 MiB (0%)
Language : English
Default : No
Forced : No

Menu
00:00:00.000 : en:(01)00:00:00:000
00:11:36.779 : en:(02)00:11:36:779
00:19:56.904 : en:(03)00:19:56:904
00:35:52.984 : en:(04)00:35:52:984
00:48:29.364 : en:(05)00:48:29:364
00:58:33.092 : en:(06)00:58:33:092
01:11:08.305 : en:(07)01:11:08:305
01:26:45.408 : en:(08)01:26:45:408






Click To View Screenshot

Click To View Screenshot

Click To View Screenshot


Download A Study in Terror 1965 10bit hevc-d3g. torrent


Related Torrents


Comments   (please login to add your comment!)


Home - Browse Torrents - Our official mirror : extra2.to

Made with love by an Extratorrent Fan!