extratorrent2.cc - A Fan Made Alternative Login   |   Register
Important Information
Registrations are open now
-------------------------------------

Please click here to register with Extratorrent2 to recieve latest updates, add bookmarks and to post comments.

-------------------------------------

Your login details will work on both Extratorrent2.cc and Extra2.to

Friends
Friends

1) Filebebo
-------------------------------------
2) MoviesDig
-------------------------------------
3) Torrentz2.cc
-------------------------------------
4) Torrents.me

Extratorrent2 > Categories > TV > Modern.Family.S09E03.720p.HDTV.x264-AVS torrent


Browse TV torrents

Modern.Family.S09E03.720p.HDTV.x264-AVS torrent


Download torrent: Download Modern.Family.S09E03.720p.HDTV.x264-AVS torrent Magnet link Bookmark Torrent: Modern.Family.S09E03.720p.HDTV.x264-AVS   Modern.Family.S09E03.720p.HDTV.x264-AVS torrent
Info hash: 0156193AB6665588EDE4066F559404708C8A76F5
Category: Categories > TV
Trackers:
View all torrent trackers >
Health:
 seeds: 23 ,  leechers: 22 |  Update >
Torrent language: English English
Total Size: 598.6 MB
Files List:
2    View torrent files >
Uploader:
showstopper
Torrent added: October 12, 2017, 3:02 am
Users rating: ---, not rated. please login to rate.

Download Modern.Family.S09E03.720p.HDTV.x264-AVS torrent



Torrent Description

Modern.Family.S09E03.720p.HDTV.x264-AVS



Complete name : Modern.Family.S09E03.720p.HDTV.x264-AVS.mkv
Format : Matroska
Format version : Version 4 / Version 2
File size : 599 MiB
Duration : 21 min 25 s
Overall bit rate : 3 907 kb/s
Encoded date : UTC 2017-10-12 01:37:06
Writing application : FastLE v3.0.0 - AVS
Writing library : libx264 + libebml + libmatroska + libfastrar

Video
ID : 1
Format : AVC
Format/Info : Advanced Video Codec
Format profile :
Format settings, CABAC : Yes
Format settings, ReFrames : 5 frames
Codec ID : V_MPEG4/ISO/AVC
Duration : 21 min 25 s
Bit rate : 3 445 kb/s
Width : 1 280 pixels
Height : 718 pixels
Display aspect ratio : 16:9
Frame rate mode : Constant
Frame rate : 23.976 (24000/1001) FPS
Color space : YUV
Chroma subsampling : 4:2:0
Bit depth : 8 bits
Scan type : Progressive
Bits/(Pixel*Frame) : 0.156
Stream size : 528 MiB (88%)
Writing library : x264 core 152 r2851 ba24899
Encoding settings : cabac=1 / ref=5 / deblock=1:0:0 / analyse=0x3:0x113 / me=hex / subme=8 / psy=1 / psy_rd=1.00:0.00 / mixed_ref=1 / me_range=16 / chroma_me=1 / trellis=2 / 8x8dct=1 / cqm=0 / deadzone=21,11 / fast_pskip=1 / chroma_qp_offset=-2 / threads=22 / lookahead_threads=3 / sliced_threads=0 / nr=0 / decimate=1 / interlaced=0 / bluray_compat=0 / constrained_intra=0 / bframes=3 / b_pyramid=2 / b_adapt=1 / b_bias=0 / direct=3 / weightb=1 / open_gop=0 / weightp=2 / keyint=250 / keyint_min=23 / scenecut=40 / intra_refresh=0 / rc_lookahead=50 / rc=crf / mbtree=1 / crf=18.0 / qcomp=0.60 / qpmin=0 / qpmax=69 / qpstep=4 / ip_ratio=1.40 / aq=1:1.00
Default : Yes
Forced : No
Color range : Limited
Matrix coefficients : BT.709

Audio
ID : 2
Format : AC-3
Format/Info : Audio Coding 3
Format settings, Endianness : Big
Codec ID : A_AC3
Duration : 21 min 25 s
Bit rate mode : Constant
Bit rate : 384 kb/s
Channel(s) : 6 channels
Channel positions : Front: L C R, Side: L R, LFE
Sampling rate : 48.0 kHz
Frame rate : 31.250 FPS (1536 spf)
Bit depth : 16 bits
Compression mode : Lossy
Stream size : 58.8 MiB (10%)
Service kind : Complete Main
Default : Yes
Forced : No






Click To View Screenshot

Click To View Screenshot

Click To View Screenshot


Download Modern.Family.S09E03.720p.HDTV.x264-AVS torrent


Related Torrents


Comments   (please login to add your comment!)


Home - Browse Torrents - Our official mirror : extra2.to

Made with love by an Extratorrent Fan!