extratorrent2.cc - A Fan Made Alternative Login   |   Register
Important Information
Registrations are open now
-------------------------------------

Please click here to register with Extratorrent2 to recieve latest updates, add bookmarks and to post comments.

-------------------------------------

Your login details will work on both Extratorrent2.cc and Extra2.to

Friends
Friends

1) Filebebo
-------------------------------------
2) MoviesDig
-------------------------------------
3) Torrentz2.cc
-------------------------------------
4) Torrents.me

Extratorrent2 > Categories > Movies > Fifty.Shades.Darker.2017.720p.BluRay.x264-x0r[PRiME] torrent


Browse Movies torrents

Fifty.Shades.Darker.2017.720p.BluRay.x264-x0r[PRiME] torrent


Fifty Shades Darker (2017)
Name: Fifty Shades Darker
Released Year: 2017
Runtime: 118 mins
Gener: Drama, Romance
Director: James Foley
Country: USA
IMDB Rating: 4.6/10
Plot: While Christian wrestles with his inner demons, Anastasia must confront the anger and envy of the women who came before her.

Download torrent: Download Fifty.Shades.Darker.2017.720p.BluRay.x264-x0r[PRiME] torrent Magnet link Bookmark Torrent: Fifty.Shades.Darker.2017.720p.BluRay.x264-x0r[PRiME]   Fifty.Shades.Darker.2017.720p.BluRay.x264-x0r[PRiME] torrent
Info hash: D741613D19BAA97951E90BC9B3CC2E719EEAF354
Category: Categories > Movies
Trackers:
View all torrent trackers >
Health:
 seeds: 0 ,  leechers: 1 |  Update >
Torrent language: English English
Total Size: 2.9 GB
Files List:
7    View torrent files >
Uploader:
showstopper
Torrent added: May 14, 2017, 11:53 pm
IMDB: http://www.imdb.com/title/tt4465564
Users rating: ---, not rated. please login to rate.

Download Fifty.Shades.Darker.2017.720p.BluRay.x264-x0r[PRiME] torrent



Torrent Description


Fifty.Shades.Darker.2017.720p.BluRay.x264-x0r[PRiME]

ImDb: http://www.imdb.com/title/tt4465564



Complete name : Fifty.Shades.Darker.2017.720p.BluRay.x264-x0r[TRAILER-Theatrical Trailer][PRiME].mov
Format : MPEG-4
Format profile : QuickTime
Codec ID : qt 2005.03 (qt )
File size : 91.5 MiB
Duration : 2 min 35 s
Overall bit rate : 4 931 kb/s
Encoded date : UTC 2016-12-07 06:20:56
Tagged date : UTC 2016-12-07 06:20:59
Writing library : Apple QuickTime
Media/UUID : 665AE854-0C07-4D97-B840-23A131ED5901
Media/History/UUID : FD86C04D-C358-4B94-8489-363558654AA8

Video
ID : 1
Format : AVC
Format/Info : Advanced Video Codec
Format profile :
Format settings, CABAC : No
Format settings, ReFrames : 2 frames
Codec ID : avc1
Codec ID/Info : Advanced Video Coding
Duration : 2 min 35 s
Bit rate : 4 833 kb/s
Width : 1 280 pixels
Height : 544 pixels
Display aspect ratio : 2.35:1
Frame rate mode : Constant
Frame rate : 23.976 (24000/1001) FPS
Color space : YUV
Chroma subsampling : 4:2:0
Bit depth : 8 bits
Scan type : Progressive
Bits/(Pixel*Frame) : 0.290
Stream size : 89.7 MiB (98%)
Language : English
Encoded date : UTC 2016-12-07 06:20:55
Tagged date : UTC 2016-12-07 06:20:59
Color range : Limited
Color primaries : BT.709
Transfer characteristics : BT.709
Matrix coefficients : BT.709

Audio
ID : 3
Format : AAC
Format/Info : Advanced Audio Codec
Format profile : LC
Codec ID : 40
Duration : 2 min 35 s
Source duration : 2 min 35 s
Bit rate mode : Constant
Bit rate : 96.0 kb/s
Channel(s) : 2 channels
Channel positions : Front: L R
Sampling rate : 44.1 kHz
Frame rate : 43.066 FPS (1024 spf)
Compression mode : Lossy
Stream size : 1.73 MiB (2%)
Source stream size : 1.73 MiB (2%)
Language : English
Encoded date : UTC 2016-12-07 06:20:56
Tagged date : UTC 2016-12-07 06:20:59

Other
ID : 2
Type : Time code
Format : QuickTime TC
Duration : 2 min 35 s
Time code of first frame : 01:00:00:01
Time code, striped : Yes
Title : untitled
Language : English
Encoded date : UTC 2016-12-07 06:20:55
Tagged date : UTC 2016-12-07 06:20:59
Bit rate mode : CBR




Click Image To View Full Size


Click To View Screenshot
Click To View Screenshot
Click To View Screenshot


Download Fifty.Shades.Darker.2017.720p.BluRay.x264-x0r[PRiME] torrent


Related Torrents


Comments   (please login to add your comment!)


Home - Browse Torrents - Our official mirror : extra2.to

Made with love by an Extratorrent Fan!