extratorrent2.cc - A Fan Made Alternative Login   |   Register
Important Information
Registrations are open now
-------------------------------------

Please click here to register with Extratorrent2 to recieve latest updates, add bookmarks and to post comments.

Friends
Friends

1) ProxyFix

Extratorrent2 > Categories > Movies > King Arthur 2004 720p Esub BluRay Dual Audio English Hindi GOPISAHI torrent


Browse Movies torrents

King Arthur 2004 720p Esub BluRay Dual Audio English Hindi GOPISAHI torrent


Download torrent: Download King Arthur 2004 720p Esub BluRay  Dual Audio English Hindi GOPISAHI torrent Magnet link Bookmark Torrent: King Arthur 2004 720p Esub BluRay  Dual Audio English Hindi GOPISAHI   King Arthur 2004 720p Esub BluRay Dual Audio English Hindi GOPISAHI torrent
Info hash: 43F2CD55C900C13EE728576E9504BA74F074EAC0
Category: Categories > Movies
Trackers:
View all torrent trackers >
Health:
 seeds: 30 ,  leechers: 35 |  Update >
Torrent language: English English
Total Size: 793.4 MB
Files List:
2    View torrent files >
Uploader:
PENDUDESI
Torrent added: February 13, 2018, 9:35 am
Users rating: ---, not rated. please login to rate.

Download King Arthur 2004 720p Esub BluRay  Dual Audio English Hindi GOPISAHI torrent



Torrent Description



Format : Matroska

Format version : Version 4 / Version 2

File size : 793 MiB

Duration : 2 h 24 min

Overall bit rate : 767 kb/s

Movie name : King Arthur 2004 GOPISAHI


Video

Format : AVC

Codec ID : V_MPEG4/ISO/AVC

Duration : 2 h 24 min

Bit rate : 600 kb/s

Width : 1 280 pixels

Height : 544 pixels

Display aspect ratio : 2.35:1

Frame rate mode : Constant

Frame rate : 23.500 FPS

Stream size : 620 MiB (78%)

Title : GOPISAHI

Writing library : x264 core 155 r2893 b00bcaf


Audio #1

Format : AAC

Duration : 2 h 16 min

Bit rate : 89.4 kb/s

Channel(s) : 6 channels

Channel positions : Front: L C R, Side: L R, LFE

Sampling rate : 44.1 kHz

Frame rate : 43.066 FPS (1024 SPF)

Compression mode : Lossy

Stream size : 87.3 MiB (11%)

Title : GOPISAHI

Language : Hindi


Audio #2

Format : AAC

Duration : 2 h 16 min

Bit rate : 85.4 kb/s

Channel(s) : 6 channels

Channel positions : Front: L C R, Side: L R, LFE

Sampling rate : 44.1 kHz

Frame rate : 43.066 FPS (1024 SPF)

Compression mode : Lossy

Stream size : 83.2 MiB (10%)

Title : GOPISAHI

Language : English




Download King Arthur 2004 720p Esub BluRay  Dual Audio English Hindi GOPISAHI torrent


Related Torrents


Comments   (please login to add your comment!)


Home - Browse Torrents

Made with love by an Extratorrent Fan!