extratorrent2.cc - A Fan Made Alternative Login   |   Register
Important Information
Registrations are open now
-------------------------------------

Please click here to register with Extratorrent2 to recieve latest updates, add bookmarks and to post comments.

Friends
Friends

1) ProxyFix

Extratorrent2 > Categories > TV > Fit to Rule How Royal Illness Changed History S01E03 Happy Families Hanoverians to Windsors (720p HD, soft Eng subs) torrent


Browse TV torrents

Fit to Rule How Royal Illness Changed History S01E03 Happy Families Hanoverians to Windsors (720p HD, soft Eng subs) torrent


Download torrent: Download Fit to Rule How Royal Illness Changed History S01E03 Happy Families Hanoverians to Windsors (720p HD, soft Eng subs) torrent Magnet link Bookmark Torrent: Fit to Rule How Royal Illness Changed History S01E03 Happy Families Hanoverians to Windsors (720p HD, soft Eng subs)   Fit to Rule How Royal Illness Changed History S01E03 Happy Families Hanoverians to Windsors (720p HD, soft Eng subs) torrent
Info hash: CEF90BB28CEFE22C5682C6A6AC359B7FFE2EF012
Category: Categories > TV
Trackers:
View all torrent trackers >
Health:
 seeds: 4 ,  leechers: 8 |  Update >
Torrent language: English English
Total Size: 1,017.7 MB
Files List:
7    View torrent files >
Uploader:
ElsonRoa
Torrent added: January 12, 2018, 9:38 am
Users rating: ---, not rated. please login to rate.

Download Fit to Rule How Royal Illness Changed History S01E03 Happy Families Hanoverians to Windsors (720p HD, soft Eng subs) torrent



Torrent Description

Fit to Rule How Royal Illness Changed History S01E03 Happy Families Hanoverians to Windsors (720p HD, soft Eng subs)

In the final episode, Dr Lucy Worsley investigates the medical histories and fraught family dynamics of Queen Victoria and her descendants. She begins and ends with two events which challenged the very survival of the crown and revealed how crucial the physical and mental health of the royal family remained: the sudden death of Princess Charlotte in 1817, and the abdication of Edward VIII over a century later.

In 1817, 21-year-old Princess Charlotte was the Hanoverian dynasty's great hope: popular with the public and about to give birth to her first child, thereby securing the royal succession for another generation. But, after a 50-hour labour, recorded in minute-by-minute detail by the country's leading midwife, the baby boy was delivered stillborn, and hours later, Charlotte died too. The nation was shocked by the sudden loss of the monarchy's next two generations, and a frantic race ensued for King George's unmarried sons to be the first to produce a legitimate heir. Two years later, the Duke of Kent's new German wife gave birth to a daughter, Princess Victoria.

Whilst producing children was not a problem for Victoria, rearing an heir who was fit to rule was another matter. Fearing their eight-year-old son and successor, Bertie (the future Edward VII), was not psychologically up to the job of king, Prince Albert turned to the new pseudo-science of phrenology in a bid to get to the root of his son's problems, and Lucy charts the effect their difficult mother-son relationship had on both their reigns.

Lucy also reveals the emotional strains the royals faced as they tried to reconcile the competing demands of public duty and a private life. She examines how Queen Victoria's severe depression after Prince Albert's death almost cost her the crown, and explores the emotional turmoil of Edward VIII, who ultimately declared himself unfit to rule, choosing love over the throne.

(with soft subtitles)

First broadcast: 22 April 2013
Duration: 1 hour



Media info:-
General
Format : MPEG-4
Format profile : Base Media
Codec ID : isom (isom/iso2/avc1/mp41)
File size : 1 017 MiB
Duration : 58mn 59s
Overall bit rate mode : Variable
Overall bit rate : 2 409 Kbps
Writing application : Lavf57.25.100

Video
ID : 1
Format : AVC
Format/Info : Advanced Video Codec
Format profile :
Format settings, CABAC : Yes
Format settings, ReFrames : 2 frames
Codec ID : avc1
Codec ID/Info : Advanced Video Coding
Duration : 58mn 59s
Bit rate mode : Variable
Bit rate : 2 311 Kbps
Maximum bit rate : 3 500 Kbps
Width : 1 280 pixels
Height : 720 pixels
Display aspect ratio : 16:9
Frame rate mode : Constant
Frame rate : 25.000 fps
Color space : YUV
Chroma subsampling : 4:2:0
Bit depth : 8 bits
Scan type : Progressive
Bits/(Pixel*Frame) : 0.100
Stream size : 975 MiB (96%)

Audio
ID : 2
Format : AAC
Format/Info : Advanced Audio Codec
Format profile : LC
Codec ID : 40
Duration : 58mn 59s
Bit rate mode : Constant
Bit rate : 93.4 Kbps
Channel(s) : 2 channels
Channel positions : Front: L R
Sampling rate : 48.0 KHz
Frame rate : 46.875 fps (1024 spf)
Compression mode : Lossy
Stream size : 39.4 MiB (4%)
Default : Yes


Download Fit to Rule How Royal Illness Changed History S01E03 Happy Families Hanoverians to Windsors (720p HD, soft Eng subs) torrent


Related Torrents


Comments   (please login to add your comment!)


Home - Browse Torrents

Made with love by an Extratorrent Fan!