extratorrent2.cc - A Fan Made Alternative Login   |   Register
Important Information
Registrations are open now
-------------------------------------

Please click here to register with Extratorrent2 to recieve latest updates, add bookmarks and to post comments.

-------------------------------------

Your login details will work on both Extratorrent2.cc and Extra2.to

Friends
Friends

1) Filebebo
-------------------------------------
2) MoviesDig
-------------------------------------
3) Torrentz2.cc
-------------------------------------
4) Torrents.me

Extratorrent2 > Categories > Movies > Mulan (1998) (1080p x265 HEVC 10bit AAC 5.1) [Prof] torrent


Browse Movies torrents

Mulan (1998) (1080p x265 HEVC 10bit AAC 5.1) [Prof] torrent


Download torrent: Download Mulan (1998) (1080p x265 HEVC 10bit AAC 5.1) [Prof] torrent Magnet link Bookmark Torrent: Mulan (1998) (1080p x265 HEVC 10bit AAC 5.1) [Prof]   Mulan (1998) (1080p x265 HEVC 10bit AAC 5.1) [Prof] torrent
Info hash: FA8CCA265EC971AA01EB2D4188C02AB4D9502767
Category: Categories > Movies
Trackers:
View all torrent trackers >
Health:
 seeds: 1 ,  leechers: 2 |  Update >
Torrent language: English English
Total Size: 2.8 GB
Files List:
1    View torrent files >
Uploader:
Prof
Torrent added: December 3, 2017, 7:17 am
Users rating: ---, not rated. please login to rate.

Download Mulan (1998) (1080p x265 HEVC 10bit AAC 5.1) [Prof] torrent



Torrent Description

Format : Matroska
Format version : Version 4 / Version 2
File size : 2.84 GiB
Duration : 1 h 27 min
Overall bit rate : 4 629 kb/s
Movie name : Mulan 15th Anniversary Edition
Encoded date : UTC 2017-12-02 08:57:19
Writing application : mkvmerge v9.6.0 ('Slave To Your Mind') 64bit
Writing library : libebml v1.3.4 + libmatroska v1.4.5

Video
ID : 1
Format : HEVC
Format/Info : High Efficiency Video Coding
Format profile : Main @Main
Codec ID : V_MPEGH/ISO/HEVC
Duration : 1 h 27 min
Bit rate : 3 581 kb/s
Width : 1 920 pixels
Height : 1 080 pixels
Display aspect ratio : 16:9
Frame rate mode : Constant
Frame rate : 23.976 (24000/1001) FPS
Color space : YUV
Chroma subsampling : 4:2:0
Bit depth : 10 bits
Bits/(Pixel*Frame) : 0.072
Stream size : 2.20 GiB (77%)
Writing library : x265 2.1+69-c97c64ab8b8e:[Windows][GCC 6.2.0][64 bit] 10bit
Encoding settings : cpuid=1173503 / frame-threads=2 / numa-pools=4 / wpp / no-pmode / no-pme / no-psnr / no-ssim / log-level=2 / input-csp=1 / input-res=1920x1080 / interlace=0 / total-frames=126363 / level-idc=0 / high-tier=1 / uhd-bd=0 / ref=4 / no-allow-non-conformance / no-repeat-headers / annexb / no-aud / no-hrd / info / hash=0 / no-temporal-layers / open-gop / min-keyint=23 / keyint=250 / bframes=4 / b-adapt=2 / b-pyramid / bframe-bias=0 / rc-lookahead=25 / lookahead-slices=4 / scenecut=40 / no-intra-refresh / ctu=64 / min-cu-size=8 / rect / no-amp / max-tu-size=32 / tu-inter-depth=1 / tu-intra-depth=1 / limit-tu=0 / rdoq-level=2 / signhide / no-tskip / nr-intra=0 / nr-inter=0 / no-constrained-intra / strong-intra-smoothing / max-merge=3 / limit-refs=3 / limit-modes / me=3 / subme=3 / merange=57 / temporal-mvp / weightp / no-weightb / no-analyze-src-pics / deblock=0:0 / sao / no-sao-non-deblock / rd=4 / no-early-skip / rskip / no-fast-intra / no-tskip-fast / no-cu-lossless / no-b-intra / rdpenalty=0 / psy-rd=2.00 / psy-rdoq=1.00 / no-rd-refine / analysis-mode=0 / no-lossless / cbqpoffs=0 / crqpoffs=0 / rc=crf / crf=18.0 / qcomp=0.60 / qpstep=4 / stats-write=0 / stats-read=0 / ipratio=1.40 / pbratio=1.30 / aq-mode=1 / aq-strength=1.00 / cutree / zone-count=0 / no-strict-cbr / qg-size=32 / no-rc-grain / qpmax=69 / qpmin=0 / sar=0 / overscan=0 / videoformat=5 / range=0 / colorprim=2 / transfer=2 / colormatrix=2 / chromaloc=0 / display-window=0 / max-cll=0,0 / min-luma=0 / max-luma=1023 / log2-max-poc-lsb=8 / vui-timing-info / vui-hrd-info / slices=1 / opt-qp-pps / opt-ref-list-length-pps / no-multi-pass-opt-rps / scenecut-bias=0.05
Default : Yes
Forced : No

Audio
ID : 2
Format : AAC
Format/Info : Advanced Audio Codec
Format profile : LC
Codec ID : A_AAC
Duration : 1 h 27 min
Bit rate : 978 kb/s
Channel(s) : 6 channels
Channel positions : Front: L C R, Side: L R, LFE
Sampling rate : 48.0 kHz
Frame rate : 46.875 FPS (1024 spf)
Compression mode : Lossy
Delay relative to video : 9 ms
Stream size : 615 MiB (21%)
Language : English
Default : No
Forced : No

Text #1
ID : 3
Format : PGS
Muxing mode : zlib
Codec ID : S_HDMV/PGS
Codec ID/Info : Picture based subtitle format used on BDs/HD-DVDs
Duration : 1 h 26 min
Bit rate : 12.1 kb/s
Count of elements : 2536
Stream size : 7.45 MiB (0%)
Language : English
Default : No
Forced : No

Text #2
ID : 4
Format : PGS
Muxing mode : zlib
Codec ID : S_HDMV/PGS
Codec ID/Info : Picture based subtitle format used on BDs/HD-DVDs
Duration : 1 h 19 min
Bit rate : 9 167 b/s
Count of elements : 1748
Stream size : 5.23 MiB (0%)
Language : English
Default : No
Forced : No

Text #3
ID : 5
Format : PGS
Muxing mode : zlib
Codec ID : S_HDMV/PGS
Codec ID/Info : Picture based subtitle format used on BDs/HD-DVDs
Duration : 1 h 26 min
Bit rate : 24.9 kb/s
Count of elements : 3270
Stream size : 15.5 MiB (1%)
Language : English
Default : No
Forced : No

Text #4
ID : 6
Format : PGS
Muxing mode : zlib
Codec ID : S_HDMV/PGS
Codec ID/Info : Picture based subtitle format used on BDs/HD-DVDs
Duration : 1 h 26 min
Bit rate : 22.5 kb/s
Count of elements : 3050
Stream size : 14.0 MiB (0%)
Language : English
Default : No
Forced : No

Menu
00:00:00.000 : en:Chapter 01
00:00:59.184 : en:Chapter 02
00:03:06.352 : en:Chapter 03
00:06:07.075 : en:Chapter 04
00:09:06.420 : en:Chapter 05
00:11:55.005 : en:Chapter 06
00:14:13.811 : en:Chapter 07
00:17:22.916 : en:Chapter 08
00:20:24.932 : en:Chapter 09
00:23:14.142 : en:Chapter 10
00:25:26.274 : en:Chapter 11
00:26:56.948 : en:Chapter 12
00:29:10.582 : en:Chapter 13
00:32:54.347 : en:Chapter 14
00:34:49.212 : en:Chapter 15
00:37:31.249 : en:Chapter 16
00:42:07.608 : en:Chapter 17
00:45:49.872 : en:Chapter 18
00:46:45.552 : en:Chapter 19
00:47:33.684 : en:Chapter 20
00:49:48.694 : en:Chapter 21
00:54:38.275 : en:Chapter 22
00:59:49.419 : en:Chapter 23
01:04:20.356 : en:Chapter 24
01:06:02.124 : en:Chapter 25
01:08:47.039 : en:Chapter 26
01:11:41.297 : en:Chapter 27
01:15:44.122 : en:Chapter 28
01:18:53.186 : en:Chapter 29
01:20:57.477 : en:Chapter 30


Download Mulan (1998) (1080p x265 HEVC 10bit AAC 5.1) [Prof] torrent


Related Torrents


Comments   (please login to add your comment!)


Home - Browse Torrents - Our official mirror : extra2.to

Made with love by an Extratorrent Fan!