extratorrent2.cc - A Fan Made Alternative Login   |   Register
Important Information
Registrations are open now
-------------------------------------

Please click here to register with Extratorrent2 to recieve latest updates, add bookmarks and to post comments.

Friends
Friends

1) ProxyFix

Extratorrent2 > Categories > Anime > [Prof] Sengoku Basara: Samurai Kings - The Last Party (1080p x265 HEVC 10bit AAC 5.1 Eng Dub) torrent


Browse Anime torrents

[Prof] Sengoku Basara: Samurai Kings - The Last Party (1080p x265 HEVC 10bit AAC 5.1 Eng Dub) torrent


Download torrent: Download [Prof] Sengoku Basara: Samurai Kings - The Last Party (1080p x265 HEVC 10bit AAC 5.1 Eng Dub) torrent Magnet link Bookmark Torrent: [Prof] Sengoku Basara: Samurai Kings - The Last Party (1080p x265 HEVC 10bit AAC 5.1 Eng Dub)   [Prof] Sengoku Basara: Samurai Kings - The Last Party (1080p x265 HEVC 10bit AAC 5.1 Eng Dub) torrent
Info hash: F6FDA7264394C4348FF34FE445279FAA5AB43189
Category: Categories > Anime
Trackers:
View all torrent trackers >
Health:
 seeds: 13 ,  leechers: 7 |  Update >
Torrent language: English English
Total Size: 2.2 GB
Files List:
1    View torrent files >
Uploader:
Prof
Torrent added: May 12, 2018, 5:31 am
Users rating: ---, not rated. please login to rate.

Download [Prof] Sengoku Basara: Samurai Kings - The Last Party (1080p x265 HEVC 10bit AAC 5.1 Eng Dub) torrent



Torrent Description

Format                                   : Matroska
Format version                           : Version 4 / Version 2
File size                                : 2.21 GiB
Duration                                 : 1 h 34 min
Overall bit rate                         : 3 337 kb/s
Movie name                               : Sengoku_Basara
Encoded date                             : UTC 2018-05-11 14:41:05
Writing application                      : mkvmerge v9.6.0 ('Slave To Your Mind') 64bit
Writing library                          : libebml v1.3.4 + libmatroska v1.4.5

Video
ID                                       : 1
Format                                   : HEVC
Format/Info                              : High Efficiency Video Coding
Format profile                           : Main @Main
Codec ID                                 : V_MPEGH/ISO/HEVC
Duration                                 : 1 h 34 min
Bit rate                                 : 3 075 kb/s
Width                                    : 1 920 pixels
Height                                   : 1 080 pixels
Display aspect ratio                     : 16:9
Frame rate mode                          : Constant
Frame rate                               : 23.976 (24000/1001) FPS
Color space                              : YUV
Chroma subsampling                       : 4:2:0
Bit depth                                : 10 bits
Bits/(Pixel*Frame)                       : 0.062
Stream size                              : 2.04 GiB (92%)
Writing library                          : x265 2.1+69-c97c64ab8b8e:[Windows][GCC 6.2.0][64 bit] 10bit
Encoding settings                        : cpuid=1173503 / frame-threads=2 / numa-pools=4 / wpp / no-pmode / no-pme / no-psnr / no-ssim / log-level=2 / input-csp=1 / input-res=1920x1080 / interlace=0 / total-frames=136575 / level-idc=0 / high-tier=1 / uhd-bd=0 / ref=4 / no-allow-non-conformance / no-repeat-headers / annexb / no-aud / no-hrd / info / hash=0 / no-temporal-layers / open-gop / min-keyint=23 / keyint=250 / bframes=4 / b-adapt=2 / b-pyramid / bframe-bias=0 / rc-lookahead=25 / lookahead-slices=4 / scenecut=40 / no-intra-refresh / ctu=64 / min-cu-size=8 / rect / no-amp / max-tu-size=32 / tu-inter-depth=1 / tu-intra-depth=1 / limit-tu=0 / rdoq-level=2 / signhide / no-tskip / nr-intra=0 / nr-inter=0 / no-constrained-intra / strong-intra-smoothing / max-merge=3 / limit-refs=3 / limit-modes / me=3 / subme=3 / merange=57 / temporal-mvp / weightp / no-weightb / no-analyze-src-pics / deblock=0:0 / sao / no-sao-non-deblock / rd=4 / no-early-skip / rskip / no-fast-intra / no-tskip-fast / no-cu-lossless / no-b-intra / rdpenalty=0 / psy-rd=2.00 / psy-rdoq=1.00 / no-rd-refine / analysis-mode=0 / no-lossless / cbqpoffs=0 / crqpoffs=0 / rc=crf / crf=19.0 / qcomp=0.60 / qpstep=4 / stats-write=0 / stats-read=0 / ipratio=1.40 / pbratio=1.30 / aq-mode=1 / aq-strength=1.00 / cutree / zone-count=0 / no-strict-cbr / qg-size=32 / no-rc-grain / qpmax=69 / qpmin=0 / sar=0 / overscan=0 / videoformat=5 / range=0 / colorprim=2 / transfer=2 / colormatrix=2 / chromaloc=0 / display-window=0 / max-cll=0,0 / min-luma=0 / max-luma=1023 / log2-max-poc-lsb=8 / vui-timing-info / vui-hrd-info / slices=1 / opt-qp-pps / opt-ref-list-length-pps / no-multi-pass-opt-rps / scenecut-bias=0.05
Default                                  : Yes
Forced                                   : No

Audio
ID                                       : 2
Format                                   : AAC
Format/Info                              : Advanced Audio Codec
Format profile                           : LC
Codec ID                                 : A_AAC
Duration                                 : 1 h 34 min
Bit rate                                 : 247 kb/s
Channel(s)                               : 6 channels
Channel positions                        : Front: L C R, Side: L R, LFE
Sampling rate                            : 48.0 kHz
Frame rate                               : 46.875 FPS (1024 spf)
Compression mode                         : Lossy
Delay relative to video                  : 9 ms
Stream size                              : 168 MiB (7%)
Language                                 : English
Default                                  : No
Forced                                   : No

Text #1
ID                                       : 3
Format                                   : PGS
Muxing mode                              : zlib
Codec ID                                 : S_HDMV/PGS
Codec ID/Info                            : Picture based subtitle format used on BDs/HD-DVDs
Duration                                 : 1 h 34 min
Bit rate                                 : 12.1 kb/s
Count of elements                        : 2386
Stream size                              : 8.20 MiB (0%)
Language                                 : English
Default                                  : No
Forced                                   : No

Text #2
ID                                       : 4
Format                                   : PGS
Muxing mode                              : zlib
Codec ID                                 : S_HDMV/PGS
Codec ID/Info                            : Picture based subtitle format used on BDs/HD-DVDs
Duration                                 : 1 h 34 min
Bit rate                                 : 897 b/s
Count of elements                        : 156
Stream size                              : 623 KiB (0%)
Language                                 : English
Default                                  : No
Forced                                   : No

Menu
00:00:00.000                             : en:Chapter 01
00:04:07.997                             : en:Chapter 02
00:08:21.083                             : en:Chapter 03
00:13:26.430                             : en:Chapter 04
00:18:33.570                             : en:Chapter 05
00:24:22.461                             : en:Chapter 06
00:29:31.561                             : en:Chapter 07
00:33:20.623                             : en:Chapter 08
00:37:22.573                             : en:Chapter 09
00:42:04.563                             : en:Chapter 10
00:45:59.173                             : en:Chapter 11
00:51:02.559                             : en:Chapter 12
00:55:03.008                             : en:Chapter 13
00:58:10.153                             : en:Chapter 14
01:02:54.520                             : en:Chapter 15
01:06:35.992                             : en:Chapter 16
01:09:37.131                             : en:Chapter 17
01:13:13.263                             : en:Chapter 18
01:18:25.075                             : en:Chapter 19
01:23:12.904                             : en:Chapter 20
01:29:05.590                             : en:Chapter 21
01:34:46.305                             : en:Chapter 22


Download [Prof] Sengoku Basara: Samurai Kings - The Last Party (1080p x265 HEVC 10bit AAC 5.1 Eng Dub) torrent


Related Torrents


Comments   (please login to add your comment!)

sas     alien covenant 2017 1080p     alexa tomas 1080p     shoujo     hindi ra one     doctor who     nf 1080p     rebecca more x265     adobe acrobat dc     rfa     tsukada     hindi english     bobbi     hd mas     vff     saving private ryan x265     shelby paige     new brazzer     kya tropic natasha nice     allover30 alice     begin again     ts jessy dubai     the possession 2012 hindi     the dreamers 2003     


Home - Browse Torrents

Made with love by an Extratorrent Fan!