extratorrent2.cc - A Fan Made Alternative Login   |   Register
Important Information
Registrations are open now
-------------------------------------

Please click here to register with Extratorrent2 to recieve latest updates, add bookmarks and to post comments.

-------------------------------------

Your login details will work on both Extratorrent2.cc and Extra2.to

Friends
Friends

1) Filebebo
-------------------------------------
2) MoviesDig
-------------------------------------
3) Torrentz2.cc
-------------------------------------
4) Torrents.me

Extratorrent2 > Categories > Movies > Darkest.Hour.2017.DVDScr.XVID.AC3.HQ.Hive-CM8 torrent


Browse Movies torrents

Darkest.Hour.2017.DVDScr.XVID.AC3.HQ.Hive-CM8 torrent


Darkest Hour (2017)
Name: Darkest Hour
Released Year: 2017
Runtime: 125 mins
Gener: Biography, Drama, History
Director: Joe Wright
Country: UK
IMDB Rating: 7.3/10
Plot: During the early days of World War II, the fate of Western Europe hangs on the newly-appointed British Prime Minister Winston Churchill, who must decide whether to negotiate with Hitler, or fight on against incredible odds.

Download torrent: Download Darkest.Hour.2017.DVDScr.XVID.AC3.HQ.Hive-CM8 torrent Magnet link Bookmark Torrent: Darkest.Hour.2017.DVDScr.XVID.AC3.HQ.Hive-CM8   Darkest.Hour.2017.DVDScr.XVID.AC3.HQ.Hive-CM8 torrent
Info hash: 331355DC9AE7561BA733DACC363AB1C031879297
Category: Categories > Movies
Trackers:
View all torrent trackers >
Health:
 seeds: 372 ,  leechers: 322 |  Update >
Torrent language: English English
Total Size: 1.9 GB
Files List:
2    View torrent files >
Uploader:
mazemaze16
Torrent added: January 12, 2018, 8:38 am
IMDB: http://www.imdb.com/title/tt4555426
Users rating: ---, not rated. please login to rate.

Download Darkest.Hour.2017.DVDScr.XVID.AC3.HQ.Hive-CM8 torrent



Torrent Description







Darkest.Hour.2017.DVDScr.XVID.AC3.HQ.Hive-CM8


Thx Hive

CM8 Doing It Right The First Time

Source: a cool dude on the street
thx

Notes:
another goodie
Don´t forget watching a scr is not like the real thing, you should still all go to the cinema and support the Producers, thx
We especially sharing this for the people who cant visit the cinema due to illness or because it is a limited release that doesnt make it to their country,
so that they also can experience some award nominations.

Encode:
quality was nice, not much to do
enjoy


Screeners:
We are still missing hostiles,downsizing,phantom thread,gr.showman,money in the world anyone want to share for the collection?
only serious people plz
Don't post info public or on any blog its too risky, it has to be done safely and secure in private, and we have proven that we can do it.
Msg us - we will respect your wishes
if you want to share with us in private it will stay private

Video: 720x384 @bitrate 1700 2pass
Audio: English Stereo
Sample: yes included


http://www.imdb.com/title/tt4555426/


General
Format : AVI
Format/Info : Audio Video Interleave
File size : 1.90 GiB
Duration : 2h 4mn
Overall bit rate : 2 182 Kbps
Writing application : Nandub v1.0rc2
Writing library : Nandub build 1853/release

Video
ID : 0
Format : MPEG-4 Visual
Format profile : Advanced
Format settings, BVOP : 2
Format settings, QPel : Yes
Format settings, GMC : No warppoints
Format settings, Matrix : Default (H.263)
Muxing mode : Packed bitstream
Codec ID : XVID
Codec ID/Hint : XviD
Duration : 2h 4mn
Bit rate : 1 914 Kbps
Width : 720 pixels
Height : 384 pixels
Display aspect ratio : 1.85:1
Frame rate : 30.000 fps
Color space : YUV
Chroma subsampling : 4:2:0
Bit depth : 8 bits
Scan type : Progressive
Compression mode : Lossy
Bits/(Pixel*Frame) : 0.231
Stream size : 1.67 GiB (88%)
Writing library : XviD 1.2.1 (UTC 2008-12-04)

Audio
ID : 1
Format : AC-3
Format/Info : Audio Coding 3
Mode extension : CM (complete main)
Format settings, Endianness : Big
Codec ID : 2000
Duration : 2h 4mn
Bit rate mode : Constant
Bit rate : 256 Kbps
Channel(s) : 2 channels
Channel positions : Front: L R
Sampling rate : 48.0 KHz
Bit depth : 16 bits
Compression mode : Lossy
Stream size : 229 MiB (12%)
Alignment : Split accross interleaves
Interleave, duration : 33 ms (1.00 video frame)
Interleave, preload duration : 500 ms

screens:





Download Darkest.Hour.2017.DVDScr.XVID.AC3.HQ.Hive-CM8 torrent


Related Torrents


Comments   (please login to add your comment!)

hindi     scooby doo     milf     side effects 2013     golf     tanya tate     ninja assassin     sex     adult hindi     xxx parody split scenes     wildoncam     digitaldesire taylor vixen     megan salinas     vi presento christopher robin     fukrey returns     tanlines 1     airbags     trans erotica     cutout     rare     take out 2004     darkx lena paul     wildoncam abella danger     jessica rex     


Home - Browse Torrents - Our official mirror : extra2.to

Made with love by an Extratorrent Fan!