extratorrent2.cc - A Fan Made Alternative Login   |   Register
Important Information
Registrations are open now
-------------------------------------

Please click here to register with Extratorrent2 to recieve latest updates, add bookmarks and to post comments.

Friends
Friends

1) Filebebo
-------------------------------------
2) MoviesDig
-------------------------------------
3) Torrentz2.cc
-------------------------------------
4) Torrents.me

Extratorrent2 > Categories > TV > Seal.Team.S01E03.HDTV.x264-LOL torrent


Browse TV torrents

Seal.Team.S01E03.HDTV.x264-LOL torrent


Download torrent: Download Seal.Team.S01E03.HDTV.x264-LOL torrent Magnet link Bookmark Torrent: Seal.Team.S01E03.HDTV.x264-LOL   Seal.Team.S01E03.HDTV.x264-LOL torrent
Info hash: C2A6A816782AD40A4F170BA3D3597038FE2B45D0
Category: Categories > TV
Trackers:
View all torrent trackers >
Health:
 seeds: 21 ,  leechers: 9 |  Update >
Torrent language: English English
Total Size: 342.8 MB
Files List:
2    View torrent files >
Uploader:
showstopper
Torrent added: October 12, 2017, 8:32 am
Users rating: ---, not rated. please login to rate.

Download Seal.Team.S01E03.HDTV.x264-LOL torrent



Torrent Description

Seal.Team.S01E03.HDTV.x264-LOL



Complete name : seal.team.103.hdtv-lol.mkv
Format : Matroska
Format version : Version 4 / Version 2
File size : 343 MiB
Duration : 43 min 31 s
Overall bit rate : 1 101 kb/s
Encoded date : UTC 2017-10-11 16:56:19
Writing application : mkvmerge v16.0.0 ('Protest') 64-bit
Writing library : libebml v1.3.5 + libmatroska v1.4.8

Video
ID : 1
Format : AVC
Format/Info : Advanced Video Codec
Format profile :
Format settings, CABAC : Yes
Format settings, ReFrames : 5 frames
Codec ID : V_MPEG4/ISO/AVC
Duration : 43 min 31 s
Bit rate : 977 kb/s
Width : 720 pixels
Height : 404 pixels
Display aspect ratio : 16:9
Frame rate mode : Constant
Frame rate : 23.976 (24000/1001) FPS
Color space : YUV
Chroma subsampling : 4:2:0
Bit depth : 8 bits
Scan type : Progressive
Bits/(Pixel*Frame) : 0.140
Stream size : 304 MiB (89%)
Writing library : x264 core 152 r2851 ba24899
Encoding settings : cabac=1 / ref=5 / deblock=1:1:1 / analyse=0x3:0x133 / me=umh / subme=9 / psy=1 / psy_rd=1.00:0.00 / mixed_ref=1 / me_range=16 / chroma_me=1 / trellis=2 / 8x8dct=1 / cqm=0 / deadzone=21,11 / fast_pskip=0 / chroma_qp_offset=-2 / threads=16 / lookahead_threads=1 / sliced_threads=0 / nr=0 / decimate=1 / interlaced=0 / bluray_compat=0 / constrained_intra=0 / bframes=3 / b_pyramid=2 / b_adapt=2 / b_bias=0 / direct=3 / weightb=1 / open_gop=0 / weightp=2 / keyint=250 / keyint_min=23 / scenecut=40 / intra_refresh=0 / rc_lookahead=60 / rc=crf / mbtree=1 / crf=19.0 / qcomp=0.60 / qpmin=0 / qpmax=69 / qpstep=4 / ip_ratio=1.40 / aq=1:1.00
Language : English
Default : Yes
Forced : No
Color range : Limited
Matrix coefficients : BT.709

Audio
ID : 2
Format : AAC
Format/Info : Advanced Audio Codec
Format profile : LC
Codec ID : A_AAC
Duration : 43 min 31 s
Bit rate : 122 kb/s
Channel(s) : 2 channels
Channel positions : Front: L R
Sampling rate : 48.0 kHz
Frame rate : 46.875 FPS (1024 spf)
Compression mode : Lossy
Delay relative to video : 9 ms
Stream size : 37.9 MiB (11%)
Default : Yes
Forced : No






Click To View Screenshot

Click To View Screenshot

Click To View Screenshot


Download Seal.Team.S01E03.HDTV.x264-LOL torrent


Related Torrents


Comments   (please login to add your comment!)

dream     dvd 1016     du sexe pour madame     bang bang 2017     new england     deviant jem     challenge     gaylordz     kenna james     milf hunter     come over     casualteensex dasha     marta la croft 2018     david wolfe     brooklyn chase 2018     d arclyte     jada     erotica     marina yuzuki     kygo stargazing     hindi     poe tell tale heart     prime cups     fast dual     


Home - Browse Torrents

Made with love by an Extratorrent Fan!