extratorrent2.cc - A Fan Made Alternative Login   |   Register
Important Information
Registrations are open now
-------------------------------------

Please click here to register with Extratorrent2 to recieve latest updates, add bookmarks and to post comments.

-------------------------------------

Your login details will work on both Extratorrent2.cc and Extra2.to

Friends
Friends

1) Filebebo
-------------------------------------
2) MoviesDig
-------------------------------------
3) Torrentz2.cc
-------------------------------------
4) Torrents.me

Extratorrent2 > Categories > Movies > The Spiderwick Chronicles 2008 720p Esub BluRay Dual Audio English Hindi GOPISAHI torrent


Browse Movies torrents

The Spiderwick Chronicles 2008 720p Esub BluRay Dual Audio English Hindi GOPISAHI torrent


Download torrent: Download The Spiderwick Chronicles 2008 720p Esub BluRay Dual Audio English Hindi GOPISAHI torrent Magnet link Bookmark Torrent: The Spiderwick Chronicles 2008 720p Esub BluRay Dual Audio English Hindi GOPISAHI   The Spiderwick Chronicles 2008 720p Esub BluRay Dual Audio English Hindi GOPISAHI torrent
Info hash: 6BCFD38B811B9DA2349998E5CBA3488E84AA5E4B
Category: Categories > Movies
Trackers:
View all torrent trackers >
Health:
 seeds: 42 ,  leechers: 14 |  Update >
Torrent language: English English
Total Size: 810.5 MB
Files List:
1    View torrent files >
Uploader:
PENDUDESI
Torrent added: October 6, 2017, 4:09 pm
Users rating: ---, not rated. please login to rate.

Download The Spiderwick Chronicles 2008 720p Esub BluRay Dual Audio English Hindi GOPISAHI torrent



Torrent Description


Format : Matroska
Format version : Version 4 / Version 2
File size : 811 MiB
Duration : 1 h 35 min
Overall bit rate : 1 183 kb/s
Movie name : The Spiderwick Chronicles 2008

Video
Format : AVC
Codec ID : V_MPEG4/ISO/AVC
Duration : 1 h 35 min
Bit rate : 1 000 kb/s
Width : 1 280 pixels
Height : 544 pixels
Display aspect ratio : 2.35:1
Frame rate mode : Constant
Frame rate : 23.976 (24000/1001) FPS
Stream size : 685 MiB (84%)
Writing library : x264

Audio #1
Format : AAC
Duration : 1 h 35 min
Bit rate : 90.7 kb/s
Channel(s) : 6 channels
Channel positions : Front: L C R, Side: L R, LFE
Sampling rate : 44.1 kHz
Frame rate : 43.066 FPS (1024 SPF)
Stream size : 62.1 MiB (8%)
Language : English

Audio #2
Format : AAC
Duration : 1 h 35 min
Bit rate : 89.9 kb/s
Channel(s) : 6 channels
Channel positions : Front: L C R, Side: L R, LFE
Sampling rate : 44.1 kHz
Frame rate : 43.066 FPS (1024 SPF)
Stream size : 61.6 MiB (8%)
Language : Hindi

Text
Language : English



Download The Spiderwick Chronicles 2008 720p Esub BluRay Dual Audio English Hindi GOPISAHI torrent


Related Torrents


Comments   (please login to add your comment!)


Home - Browse Torrents - Our official mirror : extra2.to

Made with love by an Extratorrent Fan!