extratorrent2.cc - A Fan Made Alternative Login   |   Register
Important Information
Registrations are open now
-------------------------------------

Please click here to register with Extratorrent2 to recieve latest updates, add bookmarks and to post comments.

Friends
Friends

1) ProxyFix

Extratorrent2 > Categories > Movies > Chef 2017 Hindi 720p HDRip x264 AAC ESubs ( TaRa ) torrent


Browse Movies torrents

Chef 2017 Hindi 720p HDRip x264 AAC ESubs ( TaRa ) torrent


Download torrent: Download Chef 2017 Hindi 720p HDRip x264 AAC ESubs ( TaRa ) torrent Magnet link Bookmark Torrent: Chef 2017 Hindi 720p HDRip x264 AAC ESubs ( TaRa )   Chef 2017 Hindi 720p HDRip x264 AAC ESubs ( TaRa ) torrent
Info hash: 3D139F4B7D2FAC7ABAD68D55A2F44A0536BD2192
Category: Categories > Movies
Trackers:
View all torrent trackers >
Health:
 seeds: 69 ,  leechers: 133 |  Update >
Torrent language: Hindi Hindi
Total Size: 1.4 GB
Files List:
5    View torrent files >
Uploader:
SkTara
Torrent added: November 13, 2017, 9:23 am
Tags: Chef, 2017, Movie
Users rating: ---, not rated. please login to rate.

Download Chef 2017 Hindi 720p HDRip x264 AAC ESubs ( TaRa ) torrent



Torrent Description


Chef 2017 Hindi 720p HDRip x264 AAC ESubs ( TaRa ).mkv



===================================================================
General
Complete name : Chef 2017 Hindi 720p HDRip x264 AAC ESubs ( TaRa ).mkv
Format : Matroska
Format version : Version 4 / Version 2
File size : 1.40 GiB
Duration : 2 h 11 min
Overall bit rate : 1 520 kb/s
===================================================================
Video
ID : 1
Format : AVC
Format/Info : Advanced Video Codec
Format profile :
Format settings, CABAC : Yes
Format settings, ReFrames : 4 frames
Codec ID : V_MPEG4/ISO/AVC
Duration : 2 h 11 min
Bit rate : 1 393 kb/s
Width : 1 280 pixels
Height : 544 pixels
Display aspect ratio : 2.35:1
Frame rate mode : Constant
Frame rate : 25.000 FPS
Color space : YUV
Chroma subsampling : 4:2:0
Bit depth : 8 bits
Scan type : Progressive
Bits/(Pixel*Frame) : 0.080
Stream size : 1.28 GiB (92%)
Title : .....::::: TaRa :::::.....
Default : Yes
Forced : No
===================================================================
Audio
ID : 2
Format : AAC
Format/Info : Advanced Audio Codec
Format profile : LC
Codec ID : A_AAC
Duration : 2 h 11 min
Bit rate : 125 kb/s
Channel(s) : 2 channels
Channel positions : Front: L R
Sampling rate : 44.1 kHz
Frame rate : 43.066 FPS (1024 spf)
Compression mode : Lossy
Stream size : 118 MiB (8%)
Title : .....::::: TaRa :::::.....
Language : Hindi
Default : Yes
Forced : No
===================================================================
Text
ID : 3
Format : UTF-8
Codec ID : S_TEXT/UTF8
Codec ID/Info : UTF-8 Plain Text
Duration : 2 h 7 min
Bit rate : 59 b/s
Count of elements : 1836
Stream size : 55.1 KiB (0%)
Title : .....::::: TaRa :::::.....
Language : English
Default : Yes
Forced : No
===================================================================


































Download Chef 2017 Hindi 720p HDRip x264 AAC ESubs ( TaRa ) torrent


Related Torrents


Comments   (please login to add your comment!)

glodls     lord of the rings     the chi s01e02     milk     ariel lilit     akash vani     hindi and english     roll     2017 edm     missy charme     something to tell you     alaska last frontier season     hot fuck for squirting colombian     wide awake     beyond the spectrum     picsay pro     kali roses     fort massacre     transexualfun     alexander hindi     be roots xxx parody     nullpunkt     taylor hindi     blackambush     


Home - Browse Torrents

Made with love by an Extratorrent Fan!