extratorrent2.cc - A Fan Made Alternative Login   |   Register
Important Information
Registrations are open now
-------------------------------------

Please click here to register with Extratorrent2 to recieve latest updates, add bookmarks and to post comments.

-------------------------------------

Your login details will work on both Extratorrent2.cc and Extra2.to

Friends
Friends

1) Filebebo
-------------------------------------
2) MoviesDig
-------------------------------------
3) Torrentz2.cc
-------------------------------------
4) Torrents.me

Extratorrent2 > Categories > TV > NFL.2017.11.12.Texans.vs.Rams.720p.HDTV.x264-BAJSKORV torrent


Browse TV torrents

NFL.2017.11.12.Texans.vs.Rams.720p.HDTV.x264-BAJSKORV torrent


Download torrent: Download NFL.2017.11.12.Texans.vs.Rams.720p.HDTV.x264-BAJSKORV torrent Magnet link Bookmark Torrent: NFL.2017.11.12.Texans.vs.Rams.720p.HDTV.x264-BAJSKORV   NFL.2017.11.12.Texans.vs.Rams.720p.HDTV.x264-BAJSKORV torrent
Info hash: E9D4C680614B28099C8D31DF637C0F2B521C5BDF
Category: Categories > TV
Trackers:
View all torrent trackers >
Health:
 seeds: 1 ,  leechers: 5 |  Update >
Torrent language: English English
Total Size: 3.8 GB
Files List:
2    View torrent files >
Uploader:
showstopper
Torrent added: November 13, 2017, 3:54 am
Users rating: ---, not rated. please login to rate.

Download NFL.2017.11.12.Texans.vs.Rams.720p.HDTV.x264-BAJSKORV torrent



Torrent Description

NFL.2017.11.12.Texans.vs.Rams.720p.HDTV.x264-BAJSKORV



Complete name : nfl.2017.11.12.texans.vs.rams.720p.hdtv.x264-bajskorv.mkv
Format : Matroska
Format version : Version 4 / Version 2
File size : 3.77 GiB
Duration : 2 h 12 min
Overall bit rate : 4 071 kb/s
Encoded date : UTC 2017-11-13 01:50:10
Writing application : mkvmerge v8.4.0 ('A better way to fly') 64bit
Writing library : libebml v1.3.1 + libmatroska v1.4.2

Video
ID : 1
Format : AVC
Format/Info : Advanced Video Codec
Format profile :
Format settings, CABAC : Yes
Format settings, ReFrames : 5 frames
Codec ID : V_MPEG4/ISO/AVC
Duration : 2 h 12 min
Bit rate : 3 684 kb/s
Width : 1 280 pixels
Height : 720 pixels
Display aspect ratio : 16:9
Frame rate mode : Constant
Frame rate : 59.940 (60000/1001) FPS
Color space : YUV
Chroma subsampling : 4:2:0
Bit depth : 8 bits
Scan type : Progressive
Bits/(Pixel*Frame) : 0.067
Stream size : 3.41 GiB (90%)
Writing library : x264 core 152 r2851 ba24899
Encoding settings : cabac=1 / ref=5 / deblock=1:3:3 / analyse=0x3:0x113 / me=umh / subme=8 / psy=1 / psy_rd=1.00:0.00 / mixed_ref=1 / me_range=16 / chroma_me=1 / trellis=2 / 8x8dct=1 / cqm=0 / deadzone=21,11 / fast_pskip=1 / chroma_qp_offset=-2 / threads=18 / lookahead_threads=3 / sliced_threads=0 / nr=0 / decimate=1 / interlaced=0 / bluray_compat=0 / constrained_intra=0 / bframes=5 / b_pyramid=2 / b_adapt=1 / b_bias=0 / direct=3 / weightb=1 / open_gop=0 / weightp=2 / keyint=250 / keyint_min=25 / scenecut=40 / intra_refresh=0 / rc_lookahead=50 / rc=crf / mbtree=1 / crf=23.0 / qcomp=0.60 / qpmin=0 / qpmax=69 / qpstep=4 / ip_ratio=1.40 / aq=1:1.00
Default : No
Forced : No

Audio
ID : 2
Format : AC-3
Format/Info : Audio Coding 3
Format settings, Endianness : Big
Codec ID : A_AC3
Duration : 2 h 12 min
Bit rate mode : Constant
Bit rate : 384 kb/s
Channel(s) : 6 channels
Channel positions : Front: L C R, Side: L R, LFE
Sampling rate : 48.0 kHz
Frame rate : 31.250 FPS (1536 spf)
Bit depth : 16 bits
Compression mode : Lossy
Delay relative to video : -33 ms
Stream size : 364 MiB (9%)
Service kind : Complete Main
Default : Yes
Forced : No






Click To View Screenshot

Click To View Screenshot

Click To View Screenshot


Download NFL.2017.11.12.Texans.vs.Rams.720p.HDTV.x264-BAJSKORV torrent


Related Torrents


Comments   (please login to add your comment!)

valerian 1080p     flash season     aruna aghora     ines escorte de luxe     gia paige anal     nezu mission     vanessa blake     naomi melone     the maleficent     obey melanie     autocad 2011     gabriela     bavel     twin peaks 3     snoop dog     bigwetbutts jada stevens     now music     slow hits     legends of tomorrow     littlecaprice     nude brother     dragon super     amara new chicks     ong bak     


Home - Browse Torrents - Our official mirror : extra2.to

Made with love by an Extratorrent Fan!