extratorrent2.cc - A Fan Made Alternative Login   |   Register
Important Information
Registrations are open now
-------------------------------------

Please click here to register with Extratorrent2 to recieve latest updates, add bookmarks and to post comments.

-------------------------------------

Your login details will work on both Extratorrent2.cc and Extra2.to

Friends
Friends

1) Filebebo
-------------------------------------
2) MoviesDig
-------------------------------------
3) Torrentz2.cc
-------------------------------------
4) Torrents.me

Extratorrent2 > Categories > Movies > Logan.Lucky.2017.HDCAM.X264.AC3.TiTAN torrent


Browse Movies torrents

Logan.Lucky.2017.HDCAM.X264.AC3.TiTAN torrent


Download torrent: Download Logan.Lucky.2017.HDCAM.X264.AC3.TiTAN torrent Magnet link Bookmark Torrent: Logan.Lucky.2017.HDCAM.X264.AC3.TiTAN   Logan.Lucky.2017.HDCAM.X264.AC3.TiTAN torrent
Info hash: 1C311B4ACEFB51125095C9203E711B70371846A0
Category: Categories > Movies
Trackers:
View all torrent trackers >
Health:
 seeds: 28 ,  leechers: 53 |  Update >
Torrent language: English English
Total Size: 1.8 GB
Files List:
3    View torrent files >
Uploader:
MrStark
Torrent added: September 7, 2017, 10:04 am
Tags: Logan.Lucky, , , 2017, , , HDCAM, , , X264, , , AC3, , , TiTAN
IMDB: http://www.imdb.com/title/tt5439796
Users rating: ---, not rated. please login to rate.

Download Logan.Lucky.2017.HDCAM.X264.AC3.TiTAN torrent



Torrent Description







Summary : Two brothers attempt to pull off a heist during a NASCAR race in North Carolina.



Logan Lucky 2017 HDCAM X264 AC3 TiTAN

https://www.imdb.com/title/tt5439796/

General

Complete name : /Logan Lucky 2017 HDCAM x264 AC3 TiTAN.mkv
Format : Matroska
Format version : Version 2
File size : 1.77 GiB
Duration : 1h 58mn
Overall bit rate mode : Variable
Overall bit rate : 2 144 Kbps
Encoded date : UTC 2017-09-04 20:07:50
Writing application : mkvmerge v10.0.0 ('To Drown In You') 64bit
Writing library : libebml v1.3.4 + libmatroska v1.4.5
DURATION : 01:58:25.920000000
NUMBER_OF_FRAMES : 222060
NUMBER_OF_BYTES : 170542080
_STATISTICS_WRITING_APP : mkvmerge v10.0.0 ('To Drown In You') 64bit
_STATISTICS_WRITING_DATE_UTC : 2017-09-04 20:07:50
_STATISTICS_TAGS : BPS DURATION NUMBER_OF_FRAMES NUMBER_OF_BYTES

Video
ID : 1
Format : AVC
Format/Info : Advanced Video Codec
Format profile :
Format settings, CABAC : Yes
Format settings, ReFrames : 3 frames
Codec ID : V_MPEG4/ISO/AVC
Duration : 1h 58mn
Bit rate mode : Variable
Bit rate : 1 950 Kbps
Maximum bit rate : 40.0 Mbps
Width : 656 pixels
Height : 272 pixels
Display aspect ratio : 2.40:1
Frame rate mode : Constant
Frame rate : 29.970 fps
Color space : YUV
Chroma subsampling : 4:2:0
Bit depth : 8 bits
Scan type : Progressive
Bits/(Pixel*Frame) : 0.365
Stream size : 1.58 GiB (89%)
Writing library : x264 core 148 r2744 b97ae06
Encoding settings : cabac=1 / ref=4 / deblock=1:1:1 / analyse=0x3:0x133 / me=umh / subme=10 / psy=1 / psy_rd=0.40:0.00 / mixed_ref=1 / me_range=24 / chroma_me=1 / trellis=2 / 8x8dct=1 / cqm=0 / deadzone=21,11 / fast_pskip=1 / chroma_qp_offset=-2 / threads=8 / lookahead_threads=1 / sliced_threads=0 / slices=4 / nr=0 / decimate=1 / interlaced=0 / bluray_compat=0 / constrained_intra=0 / bframes=3 / b_pyramid=1 / b_adapt=2 / b_bias=0 / direct=3 / weightb=1 / open_gop=0 / weightp=0 / keyint=29 / keyint_min=2 / scenecut=40 / intra_refresh=0 / rc_lookahead=29 / rc=2pass / mbtree=1 / bitrate=1950 / ratetol=1.0 / qcomp=0.60 / qpmin=10 / qpmax=51 / qpstep=4 / cplxblur=20.0 / qblur=0.5 / vbv_maxrate=40000 / vbv_bufsize=30000 / nal_hrd=vbr / filler=0 / ip_ratio=1.40 / aq=1:0.60
Default : Yes
Forced : No
Color primaries : BT.709
Transfer characteristics : BT.709
Matrix coefficients : BT.709

Audio
ID : 2
Format : AC-3
Format/Info : Audio Coding 3
Mode extension : CM (complete main)
Format settings, Endianness : Big
Codec ID : A_AC3
Duration : 1h 58mn
Bit rate mode : Constant
Bit rate : 192 Kbps
Channel(s) : 2 channels
Channel positions : Front: L R
Sampling rate : 48.0 KHz
Bit depth : 16 bits
Compression mode : Lossy
Stream size : 163 MiB (9%)
Default : Yes
Forced : No




Click on Thumbnails to view full size images



Thanks to the original encoder and uploader



Download Logan.Lucky.2017.HDCAM.X264.AC3.TiTAN torrent


Related Torrents


Comments   (please login to add your comment!)


Home - Browse Torrents - Our official mirror : extra2.to

Made with love by an Extratorrent Fan!