extratorrent2.cc - A Fan Made Alternative Login   |   Register
Important Information
Registrations are open now
-------------------------------------

Please click here to register with Extratorrent2 to recieve latest updates, add bookmarks and to post comments.

-------------------------------------

Your login details will work on both Extratorrent2.cc and Extra2.to

Friends
Friends

1) Filebebo
-------------------------------------
2) MoviesDig
-------------------------------------
3) Torrentz2.cc
-------------------------------------
4) Torrents.me

Extratorrent2 > Categories > Movies > The Amityville Horror 2005 BluRay 10Bit 1080p DD5.1 H265-d3g torrent


Browse Movies torrents

The Amityville Horror 2005 BluRay 10Bit 1080p DD5.1 H265-d3g torrent


Download torrent: Download The Amityville Horror 2005 BluRay 10Bit 1080p DD5.1 H265-d3g torrent Magnet link Bookmark Torrent: The Amityville Horror 2005 BluRay 10Bit 1080p DD5.1 H265-d3g   The Amityville Horror 2005 BluRay 10Bit 1080p DD5.1 H265-d3g torrent
Info hash: F6E9DB061479C7705C28C34C474C5411C2685F45
Category: Categories > Movies
Trackers:
View all torrent trackers >
Health:
 seeds: 13 ,  leechers: 12 |  Update >
Torrent language: English English
Total Size: 1.6 GB
Files List:
1    View torrent files >
Uploader:
roflcopter
Torrent added: November 13, 2017, 12:54 am
Tags: The, Amityville, Horror, 2005, BluRay, 10Bit, 1080p, DD5.1, H265
Users rating: ---, not rated. please login to rate.

Download The Amityville Horror 2005 BluRay 10Bit 1080p DD5.1 H265-d3g torrent



Torrent Description

The Amityville Horror 2005 BluRay 10Bit 1080p DD5.1 H265-d3g



Plot:
When George Lutz (Ryan Reynolds) and his wife, Kathy (Melissa George), find a beautiful new house in the small town of Amityville, N.Y., they think the place is too good to be true. After they move in with their kids, they find out the cheap price tag is thanks to the house's sordid history: The former tenant murdered his family after supposedly being possessed by the devil. Believing the home is haunted, the couple find a priest (Philip Baker Hall) to help them rid the place of evil spirits.

Release date: April 15, 2005 (USA)

Info:
Source: BluRay ISO

Format: Matroska
Format version: Version 2
File size: 1.61 GiB
Duration: 1 h 29 min
Overall bit rate: 2 581 kb/s
Movie name: The Amityville Horror 2005 BluRay 10Bit 1080p DD5.1 H265-d3g
Encoded date: UTC 2017-11-10 17:32:57
Writing application: DVDFab 10.0.6.5
Writing library: libebml v1.3.4 + libmatroska v1.4.5

Video
ID: 1
Format: HEVC
Format/Info: High Efficiency Video Coding
Format profile: Main @High
Codec ID: V_MPEGH/ISO/HEVC
Duration: 1 h 29 min
Bit rate: 2 128 kb/s
Width: 1 920 pixels
Height: 816 pixels
Display aspect ratio: 2.35:1
Frame rate mode: Constant
Frame rate: 23.976 (24000/1001) FPS
Color space: YUV
Chroma subsampling: 4:2:0
Bit depth: 10 bits
Bits/(Pixel*Frame): 0.057
Stream size: 1.33 GiB (82%)
Default: Yes
Forced: No
Color range: Limited
Color primaries: BT.709
Transfer characteristics: BT.709
Matrix coefficients: BT.709

Audio
ID: 2
Format: AC-3
Format/Info: Audio Coding 3
Format settings, Endianness: Big
Codec ID: A_AC3
Duration: 1 h 29 min
Bit rate mode: Constant
Bit rate: 448 kb/s
Channel(s): 6 channels
Channel positions: Front: L C R, Side: L R, LFE
Sampling rate: 48.0 kHz
Frame rate: 31.250 FPS (1536 SPF)
Bit depth: 16 bits
Compression mode: Lossy
Stream size: 286 MiB (17%)
Language: English
Service kind: Complete Main
Default: Yes
Forced: No

Text
ID: 3
Format: VobSub
Codec ID: S_VOBSUB
Codec ID/Info: Picture based subtitle format used on DVDs
Duration: 1 h 19 min
Bit rate: 3 973 b/s
Count of elements: 732
Stream size: 2.27 MiB (0%)
Language: English
Default: No
Forced: No

Screens:




Download The Amityville Horror 2005 BluRay 10Bit 1080p DD5.1 H265-d3g torrent


Related Torrents


Comments   (please login to add your comment!)


Home - Browse Torrents - Our official mirror : extra2.to

Made with love by an Extratorrent Fan!