extratorrent2.cc - A Fan Made Alternative Login   |   Register
Important Information
Registrations are open now
-------------------------------------

Please click here to register with Extratorrent2 to recieve latest updates, add bookmarks and to post comments.

Friends
Friends

1) Filebebo
-------------------------------------
2) MoviesDig
-------------------------------------
3) Torrentz2.cc
-------------------------------------
4) Torrents.me

Extratorrent2 > Categories > Movies > Epic 2013 720p Esub BluRay Dual Audio English Hindi GOPISAHI torrent


Browse Movies torrents

Epic 2013 720p Esub BluRay Dual Audio English Hindi GOPISAHI torrent


Download torrent: Download Epic 2013 720p Esub BluRay  Dual Audio English Hindi GOPISAHI torrent Magnet link Bookmark Torrent: Epic 2013 720p Esub BluRay  Dual Audio English Hindi GOPISAHI   Epic 2013 720p Esub BluRay Dual Audio English Hindi GOPISAHI torrent
Info hash: 852D6A357A90F331C5D75131A8339F3CB6D02F9A
Category: Categories > Movies
Trackers:
View all torrent trackers >
Health:
 seeds: 28 ,  leechers: 41 |  Update >
Torrent language: English English
Total Size: 572.3 MB
Files List:
1    View torrent files >
Uploader:
PENDUDESI
Torrent added: April 16, 2018, 7:30 am
Users rating: ---, not rated. please login to rate.

Download Epic 2013 720p Esub BluRay  Dual Audio English Hindi GOPISAHI torrent



Torrent Description


Format : Matroska

Format version : Version 4 / Version 2

File size : 572 MiB

Duration : 1 h 42 min

Overall bit rate : 781 kb/s

Movie name : Epic 2013 GOPISAHI


Video

Format : AVC

Codec ID : V_MPEG4/ISO/AVC

Duration : 1 h 42 min

Bit rate : 600 kb/s

Width : 1 280 pixels

Height : 536 pixels

Display aspect ratio : 2.40:1

Frame rate mode : Constant

Frame rate : 23.976 (24000/1001) FPS

Stream size : 440 MiB (77%)

Title : GOPISAHI

Writing library : x264 core 148 r2708 86b7198


Audio #1

Format : AAC

Duration : 1 h 42 min

Bit rate : 88.5 kb/s

Channel(s) : 6 channels

Channel positions : Front: L C R, Side: L R, LFE

Sampling rate : 44.1 kHz

Frame rate : 43.066 FPS (1024 SPF)

Compression mode : Lossy

Stream size : 64.9 MiB (11%)

Title : GOPISAHI

Language : English


Audio #2

Format : AAC

Duration : 1 h 42 min

Bit rate : 89.6 kb/s

Channel(s) : 6 channels

Channel positions : Front: L C R, Side: L R, LFE

Sampling rate : 44.1 kHz

Frame rate : 43.066 FPS (1024 SPF)

Compression mode : Lossy

Stream size : 65.7 MiB (11%)

Title : GOPISAHI

Language : Hindi


Text

Language : English



Download Epic 2013 720p Esub BluRay  Dual Audio English Hindi GOPISAHI torrent


Related Torrents


Comments   (please login to add your comment!)


Home - Browse Torrents

Made with love by an Extratorrent Fan!