extratorrent2.cc - A Fan Made Alternative Login   |   Register
Important Information
Registrations are open now
-------------------------------------

Please click here to register with Extratorrent2 to recieve latest updates, add bookmarks and to post comments.

-------------------------------------

Your login details will work on both Extratorrent2.cc and Extra2.to

Friends
Friends

1) Filebebo
-------------------------------------
2) MoviesDig
-------------------------------------
3) Torrentz2.cc
-------------------------------------
4) Torrents.me

Extratorrent2 > Categories > TV > Somewhere.Between.S01E09.iNTERNAL.720p.WEB.x264-BAMBOOZLE torrent


Browse TV torrents

Somewhere.Between.S01E09.iNTERNAL.720p.WEB.x264-BAMBOOZLE torrent


Download torrent: Download Somewhere.Between.S01E09.iNTERNAL.720p.WEB.x264-BAMBOOZLE torrent Magnet link Bookmark Torrent: Somewhere.Between.S01E09.iNTERNAL.720p.WEB.x264-BAMBOOZLE   Somewhere.Between.S01E09.iNTERNAL.720p.WEB.x264-BAMBOOZLE torrent
Info hash: E05B9A491F04E18DE77CCE6C5CD694D0B9A3861D
Category: Categories > TV
Trackers:
View all torrent trackers >
Health:
 seeds: 2 ,  leechers: 1 |  Update >
Torrent language: English English
Total Size: 1.0 GB
Files List:
2    View torrent files >
Uploader:
showstopper
Torrent added: September 13, 2017, 3:34 pm
Users rating: ---, not rated. please login to rate.

Download Somewhere.Between.S01E09.iNTERNAL.720p.WEB.x264-BAMBOOZLE torrent



Torrent Description

Somewhere.Between.S01E09.iNTERNAL.720p.WEB.x264-BAMBOOZLE



Complete name : somewhere.between.s01e09.internal.720p.web.x264-bamboozle.mkv
Format : Matroska
Format version : Version 4 / Version 2
File size : 1.03 GiB
Duration : 42 min 52 s
Overall bit rate : 3 438 kb/s
Encoded date : UTC 2017-09-13 09:46:36
Writing application : mkvmerge v8.8.0 ('Wind at my back') 64bit
Writing library : libebml v1.3.3 + libmatroska v1.4.4

Video
ID : 1
Format : AVC
Format/Info : Advanced Video Codec
Format profile :
Format settings, CABAC : Yes
Format settings, ReFrames : 2 frames
Codec ID : V_MPEG4/ISO/AVC
Duration : 42 min 52 s
Bit rate : 3 360 kb/s
Width : 1 280 pixels
Height : 720 pixels
Display aspect ratio : 16:9
Frame rate mode : Constant
Frame rate : 23.976 (23976/1000) FPS
Original frame rate : 24.000 FPS
Color space : YUV
Chroma subsampling : 4:2:0
Bit depth : 8 bits
Scan type : Progressive
Bits/(Pixel*Frame) : 0.152
Stream size : 1 015 MiB (96%)
Writing library : x264 core 148 r2579M 73ae2d1
Encoding settings : cabac=1 / ref=2 / deblock=1:0:0 / analyse=0x3:0x113 / me=hex / subme=2 / psy=1 / psy_rd=1.00:0.00 / mixed_ref=0 / me_range=16 / chroma_me=1 / trellis=0 / 8x8dct=1 / cqm=0 / deadzone=21,11 / fast_pskip=1 / chroma_qp_offset=0 / threads=4 / lookahead_threads=1 / sliced_threads=0 / nr=250 / decimate=1 / interlaced=0 / bluray_compat=0 / stitchable=1 / constrained_intra=0 / bframes=0 / weightp=1 / keyint=250 / keyint_min=24 / scenecut=40 / intra_refresh=0 / rc_lookahead=10 / rc=2pass / mbtree=1 / bitrate=3360 / ratetol=1.0 / qcomp=0.60 / qpmin=5 / qpmax=69 / qpstep=4 / cplxblur=20.0 / qblur=0.5 / ip_ratio=1.40 / aq=1:1.00
Default : Yes
Forced : No

Audio
ID : 2
Format : AAC
Format/Info : Advanced Audio Codec
Format profile : HE-AAC / LC
Codec ID : A_AAC
Duration : 42 min 52 s
Bit rate : 127 kb/s
Channel(s) : 2 channels
Channel positions : Front: L R
Sampling rate : 48.0 kHz / 24.0 kHz
Frame rate : 23.438 FPS (1024 spf)
Compression mode : Lossy
Delay relative to video : -41 ms
Stream size : 38.8 MiB (4%)
Default : Yes
Forced : No






Click To View Screenshot

Click To View Screenshot

Click To View Screenshot


Download Somewhere.Between.S01E09.iNTERNAL.720p.WEB.x264-BAMBOOZLE torrent


Related Torrents


Comments   (please login to add your comment!)


Home - Browse Torrents - Our official mirror : extra2.to

Made with love by an Extratorrent Fan!