extratorrent2.cc - A Fan Made Alternative Login   |   Register
Important Information
Registrations are open now
-------------------------------------

Please click here to register with Extratorrent2 to recieve latest updates, add bookmarks and to post comments.

-------------------------------------

Your login details will work on both Extratorrent2.cc and Extra2.to

Friends
Friends

1) Filebebo
-------------------------------------
2) MoviesDig
-------------------------------------
3) Torrentz2.cc
-------------------------------------
4) Torrents.me

Extratorrent2 > Categories > Anime > [Prof] Heaven's Lost Property: Forte (1080p x265 HEVC 10bit AAC 5.1 Eng Dub) torrent


Browse Anime torrents

[Prof] Heaven's Lost Property: Forte (1080p x265 HEVC 10bit AAC 5.1 Eng Dub) torrent


Download torrent: Download [Prof] Heaven's Lost Property: Forte (1080p x265 HEVC 10bit AAC 5.1 Eng Dub) torrent Magnet link Bookmark Torrent: [Prof] Heaven's Lost Property: Forte (1080p x265 HEVC 10bit AAC 5.1 Eng Dub)   [Prof] Heaven's Lost Property: Forte (1080p x265 HEVC 10bit AAC 5.1 Eng Dub) torrent
Info hash: E721CD79B4B51F3ED846A88BC34C979A3962F625
Category: Categories > Anime
Trackers:
View all torrent trackers >
Health:
 seeds: 5 ,  leechers: 4 |  Update >
Torrent language: English English
Total Size: 6.1 GB
Files List:
12    View torrent files >
Uploader:
Prof
Torrent added: October 12, 2017, 3:02 am
Users rating: ---, not rated. please login to rate.

Download [Prof] Heaven's Lost Property: Forte (1080p x265 HEVC 10bit AAC 5.1 Eng Dub) torrent



Torrent Description

Format : Matroska
Format version : Version 4 / Version 2
File size : 569 MiB
Duration : 23 min 43 s
Overall bit rate : 3 355 kb/s
Movie name : Heavens Lost Property Forte D1
Encoded date : UTC 2017-08-08 20:55:33
Writing application : mkvmerge v9.6.0 ('Slave To Your Mind') 64bit
Writing library : libebml v1.3.4 + libmatroska v1.4.5

Video
ID : 1
Format : HEVC
Format/Info : High Efficiency Video Coding
Format profile : Main @Main
Codec ID : V_MPEGH/ISO/HEVC
Duration : 23 min 43 s
Bit rate : 3 093 kb/s
Width : 1 920 pixels
Height : 1 080 pixels
Display aspect ratio : 16:9
Frame rate mode : Constant
Frame rate : 23.976 (24000/1001) FPS
Color space : YUV
Chroma subsampling : 4:2:0
Bit depth : 10 bits
Bits/(Pixel*Frame) : 0.062
Stream size : 525 MiB (92%)
Writing library : x265 2.1+69-c97c64ab8b8e:[Windows][GCC 6.2.0][64 bit] 10bit
Encoding settings : cpuid=1173503 / frame-threads=2 / numa-pools=4 / wpp / no-pmode / no-pme / no-psnr / no-ssim / log-level=2 / input-csp=1 / input-res=1920x1080 / interlace=0 / total-frames=34128 / level-idc=0 / high-tier=1 / uhd-bd=0 / ref=4 / no-allow-non-conformance / no-repeat-headers / annexb / no-aud / no-hrd / info / hash=0 / no-temporal-layers / open-gop / min-keyint=23 / keyint=250 / bframes=4 / b-adapt=2 / b-pyramid / bframe-bias=0 / rc-lookahead=25 / lookahead-slices=4 / scenecut=40 / no-intra-refresh / ctu=64 / min-cu-size=8 / rect / no-amp / max-tu-size=32 / tu-inter-depth=1 / tu-intra-depth=1 / limit-tu=0 / rdoq-level=2 / signhide / no-tskip / nr-intra=0 / nr-inter=0 / no-constrained-intra / strong-intra-smoothing / max-merge=3 / limit-refs=3 / limit-modes / me=3 / subme=3 / merange=57 / temporal-mvp / weightp / no-weightb / no-analyze-src-pics / deblock=0:0 / sao / no-sao-non-deblock / rd=4 / no-early-skip / rskip / no-fast-intra / no-tskip-fast / no-cu-lossless / no-b-intra / rdpenalty=0 / psy-rd=2.00 / psy-rdoq=1.00 / no-rd-refine / analysis-mode=0 / no-lossless / cbqpoffs=0 / crqpoffs=0 / rc=crf / crf=19.0 / qcomp=0.60 / qpstep=4 / stats-write=0 / stats-read=0 / ipratio=1.40 / pbratio=1.30 / aq-mode=1 / aq-strength=1.00 / cutree / zone-count=0 / no-strict-cbr / qg-size=32 / no-rc-grain / qpmax=69 / qpmin=0 / sar=0 / overscan=0 / videoformat=5 / range=0 / colorprim=2 / transfer=2 / colormatrix=2 / chromaloc=0 / display-window=0 / max-cll=0,0 / min-luma=0 / max-luma=1023 / log2-max-poc-lsb=8 / vui-timing-info / vui-hrd-info / slices=1 / opt-qp-pps / opt-ref-list-length-pps / no-multi-pass-opt-rps / scenecut-bias=0.05
Default : Yes
Forced : No

Audio
ID : 2
Format : AAC
Format/Info : Advanced Audio Codec
Format profile : LC
Codec ID : A_AAC
Duration : 23 min 43 s
Bit rate : 246 kb/s
Channel(s) : 6 channels
Channel positions : Front: L C R, Side: L R, LFE
Sampling rate : 48.0 kHz
Frame rate : 46.875 FPS (1024 spf)
Compression mode : Lossy
Delay relative to video : 9 ms
Stream size : 41.7 MiB (7%)
Language : English
Default : No
Forced : No

Text #1
ID : 3
Format : PGS
Muxing mode : zlib
Codec ID : S_HDMV/PGS
Codec ID/Info : Picture based subtitle format used on BDs/HD-DVDs
Duration : 23 min 30 s
Bit rate : 12.1 kb/s
Count of elements : 621
Stream size : 2.04 MiB (0%)
Language : English
Default : No
Forced : No

Text #2
ID : 4
Format : PGS
Muxing mode : zlib
Codec ID : S_HDMV/PGS
Codec ID/Info : Picture based subtitle format used on BDs/HD-DVDs
Duration : 22 min 4 s
Bit rate : 1 775 b/s
Count of elements : 71
Stream size : 287 KiB (0%)
Language : English
Default : No
Forced : No

Menu
00:00:00.000 : en:Chapter 01
00:01:35.845 : en:Chapter 02
00:03:06.186 : en:Chapter 03
00:12:09.061 : en:Chapter 04
00:21:35.961 : en:Chapter 05
00:23:06.385 : en:Chapter 06


Download [Prof] Heaven's Lost Property: Forte (1080p x265 HEVC 10bit AAC 5.1 Eng Dub) torrent




Comments   (please login to add your comment!)

winamp     nds     flatliners 2017     2017 hindi     no tomorrow s01e06 720p     stir crazy     tevar     humshakals     guerra     finding dory 2016     geilermanns     the good doctor     hindi     colette     fitgirl     tonightsgirlfriend sara jay     outlaw ladies     eating her peach     melissa moore     darkx keisha grey     forged in fire     clips4sale cherie deville     the grand theft auto     cane mangia cane     


Home - Browse Torrents - Our official mirror : extra2.to

Made with love by an Extratorrent Fan!