extratorrent2.cc - A Fan Made Alternative Login   |   Register
Important Information
Registrations are open now
-------------------------------------

Please click here to register with Extratorrent2 to recieve latest updates, add bookmarks and to post comments.

-------------------------------------

Your login details will work on both Extratorrent2.cc and Extra2.to

Friends
Friends

1) Filebebo
-------------------------------------
2) MoviesDig
-------------------------------------
3) Torrentz2.cc
-------------------------------------
4) Torrents.me

Extratorrent2 > Categories > Movies > The Spiderwick Chronicles (2008) 720p BluRay x264 AC3 Dual Audio [Hindi DD 5.1CH + English 2.0CH] E-Subs 1.05GB torrent


Browse Movies torrents

The Spiderwick Chronicles (2008) 720p BluRay x264 AC3 Dual Audio [Hindi DD 5.1CH + English 2.0CH] E-Subs 1.05GB torrent


Download torrent: Download The Spiderwick Chronicles (2008) 720p BluRay x264 AC3 Dual Audio [Hindi DD 5.1CH + English 2.0CH] E-Subs 1.05GB torrent Magnet link Bookmark Torrent: The Spiderwick Chronicles (2008) 720p BluRay x264 AC3 Dual Audio [Hindi DD 5.1CH + English 2.0CH] E-Subs 1.05GB   The Spiderwick Chronicles (2008) 720p BluRay x264 AC3 Dual Audio [Hindi DD 5.1CH + English 2.0CH] E-Subs 1.05GB torrent
Info hash: D988358DC74CFD7B1B2765F8CC9A1F33ABC5AC8D
Category: Categories > Movies
Trackers:
View all torrent trackers >
Health:
 seeds: 16 ,  leechers: 17 |  Update >
Torrent language: Hindi Hindi
Total Size: 1.1 GB
Files List:
1    View torrent files >
Uploader:
CrazzyBoy
Torrent added: October 5, 2017, 7:04 am
Tags: Action, Comedy, Adventure
Users rating: ---, not rated. please login to rate.

Download The Spiderwick Chronicles (2008) 720p BluRay x264 AC3 Dual Audio [Hindi DD 5.1CH + English 2.0CH] E-Subs 1.05GB torrent



Torrent Description





Video
ID                                       : 2
Format                                   : AVC
Format/Info                              : Advanced Video Codec
Format profile                           :
Format settings                          : CABAC / 4 Ref Frames
Format settings, CABAC                   : Yes
Format settings, RefFrames               : 4 frames
Codec ID                                 : V_MPEG4/ISO/AVC
Duration                                 : 1 h 35 min
Bit rate                                 : 1 000 kb/s
Width                                    : 1 280 pixels
Height                                   : 544 pixels
Display aspect ratio                     : 2.35:1
Frame rate mode                          : Constant
Frame rate                               : 23.976 (24000/1001) FPS
Color space                              : YUV
Chroma subsampling                       : 4:2:0
Bit depth                                : 8 bits
Scan type                                : Progressive
Bits/(Pixel*Frame)                       : 0.060
Stream size                              : 685 MiB (63%)
Title                                    : ~~MoviezAddiction.com~~
Language                                 : English
Default                                  : Yes
Forced                                   : No
Color range                              : Limited
Color primaries                          : BT.709
Transfer characteristics                 : BT.709
Matrix coefficients                      : BT.709

Audio #1
ID                                       : 1
Format                                   : AC-3
Format/Info                              : Audio Coding 3
Format settings, Endianness              : Big
Codec ID                                 : A_AC3
Duration                                 : 1 h 35 min
Bit rate mode                            : Constant
Bit rate                                 : 384 kb/s
Channel(s)                               : 6 channels
Channel positions                        : Front: L C R, Side: L R, LFE
Sampling rate                            : 48.0 kHz
Frame rate                               : 31.250 FPS (1536 SPF)
Bit depth                                : 16 bits
Compression mode                         : Lossy
Delay relative to video                  : -21 ms
Stream size                              : 263 MiB (24%)
Title                                    : ~~MoviezAddiction.com~~
Language                                 : Hindi
Service kind                             : Complete Main
Default                                  : Yes
Forced                                   : No

Audio #2
ID                                       : 3
Format                                   : AAC
Format/Info                              : Advanced Audio Codec
Format profile                           : LC
Codec ID                                 : A_AAC-2
Duration                                 : 1 h 35 min
Bit rate                                 : 192 kb/s
Channel(s)                               : 2 channels
Channel positions                        : Front: L R
Sampling rate                            : 48.0 kHz
Frame rate                               : 46.875 FPS (1024 SPF)
Compression mode                         : Lossy
Delay relative to video                  : -21 ms
Stream size                              : 132 MiB (12%)
Title                                    : ~~MoviezAddiction.com~~
Language                                 : English
Default                                  : No
Forced                                   : No

Text
ID                                       : 4
Format                                   : UTF-8
Codec ID                                 : S_TEXT/UTF8
Codec ID/Info                            : UTF-8 Plain Text
Duration                                 : 1 h 26 min
Bit rate                                 : 56 b/s
Count of elements                        : 1097
Stream size                              : 36.2 KiB (0%)
Title                                    : ~~MoviezAddiction.com~~
Language                                 : English
Default                                  : Yes
Forced                                   : No














Download The Spiderwick Chronicles (2008) 720p BluRay x264 AC3 Dual Audio [Hindi DD 5.1CH + English 2.0CH] E-Subs 1.05GB torrent


Related Torrents


Comments   (please login to add your comment!)

ava addams     arab     the hitmans bodyguard     spectre     laura     gala     rape hindi     so you think you can dance     hindi 2017     the last exorcism     sherlyn chopra     adobe flash cs5     hindi     creampies     toilet ek prem katha     rick riordan audiobook     thor hindi     the simpsons     justice league ita     savita bhabhi     2017     iron man hindi     dharma durai     2017 hindi english 1080p     


Home - Browse Torrents - Our official mirror : extra2.to

Made with love by an Extratorrent Fan!