extratorrent2.cc - A Fan Made Alternative Login   |   Register
Important Information
Registrations are open now
-------------------------------------

Please click here to register with Extratorrent2 to recieve latest updates, add bookmarks and to post comments.

Friends
Friends

1) Filebebo
-------------------------------------
2) MoviesDig
-------------------------------------
3) Torrentz2.cc
-------------------------------------
4) Torrents.me

Extratorrent2 > Categories > Movies > Animal House 1978 720p Esub BluRay Dual Audio English Hindi GOPISAHI torrent


Browse Movies torrents

Animal House 1978 720p Esub BluRay Dual Audio English Hindi GOPISAHI torrent


Download torrent: Download Animal House 1978 720p Esub BluRay  Dual Audio English Hindi GOPISAHI torrent Magnet link Bookmark Torrent: Animal House 1978 720p Esub BluRay  Dual Audio English Hindi GOPISAHI   Animal House 1978 720p Esub BluRay Dual Audio English Hindi GOPISAHI torrent
Info hash: A5311E6FFED907376D5BA775B2A7D7B72FBD0D17
Category: Categories > Movies
Trackers:
View all torrent trackers >
Health:
 seeds: 38 ,  leechers: 18 |  Update >
Torrent language: English English
Total Size: 609.2 MB
Files List:
1    View torrent files >
Uploader:
PENDUDESI
Torrent added: April 16, 2018, 8:30 am
Users rating: ---, not rated. please login to rate.

Download Animal House 1978 720p Esub BluRay  Dual Audio English Hindi GOPISAHI torrent



Torrent Description


Format : Matroska

Format version : Version 4 / Version 2

File size : 609 MiB

Duration : 1 h 48 min

Overall bit rate : 783 kb/s

Movie name : Animal House 1978 GOPISAHI


Video

Format : AVC

Codec ID : V_MPEG4/ISO/AVC

Duration : 1 h 48 min

Bit rate : 600 kb/s

Width : 1 280 pixels

Height : 688 pixels

Display aspect ratio : 1.85:1

Frame rate mode : Constant

Frame rate : 23.976 (24000/1001) FPS

Stream size : 467 MiB (77%)

Title : GOPISAHI

Writing library : x264 core 155 r2893 b00bcaf


Audio #1

Format : AAC

Duration : 1 h 48 min

Bit rate : 92.2 kb/s

Channel(s) : 6 channels

Channel positions : Front: L C R, Side: L R, LFE

Sampling rate : 44.1 kHz

Frame rate : 43.066 FPS (1024 SPF)

Compression mode : Lossy

Stream size : 71.7 MiB (12%)

Title : GOPISAHI

Language : Hindi


Audio #2

Format : AAC

Duration : 1 h 48 min

Bit rate : 88.0 kb/s

Channel(s) : 6 channels

Channel positions : Front: L C R, Side: L R, LFE

Sampling rate : 44.1 kHz

Frame rate : 43.066 FPS (1024 SPF)

Compression mode : Lossy

Stream size : 68.4 MiB (11%)

Title : GOPISAHI

Language : English


Text

Language : English



Download Animal House 1978 720p Esub BluRay  Dual Audio English Hindi GOPISAHI torrent


Related Torrents


Comments   (please login to add your comment!)


Home - Browse Torrents

Made with love by an Extratorrent Fan!