extratorrent2.cc - A Fan Made Alternative Login   |   Register
Important Information
Registrations are open now
-------------------------------------

Please click here to register with Extratorrent2 to recieve latest updates, add bookmarks and to post comments.

Friends
Friends

1) ProxyFix

Extratorrent2 > Categories > Movies > 18+ Superfly 2018 UNCENSORED Movies HDRip x264 5.1 with Sample ☻rDX☻ torrent


Browse Movies torrents

18+ Superfly 2018 UNCENSORED Movies HDRip x264 5.1 with Sample ☻rDX☻ torrent


Download torrent: Download 18+ Superfly 2018 UNCENSORED Movies HDRip x264 5.1 with Sample ☻rDX☻ torrent Magnet link Bookmark Torrent: 18+ Superfly 2018 UNCENSORED Movies HDRip x264 5.1 with Sample ☻rDX☻   18+ Superfly 2018 UNCENSORED Movies HDRip x264 5.1 with Sample ☻rDX☻ torrent
Info hash: CA50CF86FA27F776F7BAAEA00D35B236E7312840
Category: Categories > Movies
Trackers:
View all torrent trackers >
Health:
 seeds: 18 ,  leechers: 5 |  Update >
Torrent language: English English
Total Size: 846.8 MB
Files List:
2    View torrent files >
Uploader:
nehalpuja
Torrent added: September 9, 2018, 3:30 pm
IMDB: http://www.imdb.com/title/tt7690670
Users rating: ---, not rated. please login to rate.

Download 18+ Superfly 2018 UNCENSORED Movies HDRip x264 5.1 with Sample ☻rDX☻ torrent



Torrent Description

18+ Superfly 2018 UNCENSORED Movies HDRip x264 5.1 with Sample ☻rDX☻
===============================================================================================

SCREEN SHOTS:



or

http://iphonehosting.eu/2018/8/a/jeans/1.html

File size : 838 MiB
Duration : 1 h 56 min
Overall bit rate mode : Constant
Overall bit rate : 1 009 kb/s
Movie name : 18+ Superfly 2018 UNCENSORED Movies HDRip x264 5.1 ☻rDX☻

Video
ID : 2
Format : AVC
Format/Info : Advanced Video Codec
Format profile :
Format settings, CABAC : Yes
Format settings, ReFrames : 2 frames
Format settings, GOP : M=1, N=12
Codec ID : V_MPEG4/ISO/AVC
Duration : 1 h 56 min
Bit rate mode : Constant
Bit rate : 626 kb/s
Width : 720 pixels
Height : 384 pixels
Display aspect ratio : 1.85:1
Frame rate mode : Constant
Frame rate : 23.976 FPS
Color space : YUV
Chroma subsampling : 4:2:0
Bit depth : 8 bits
Scan type : Progressive
Bits/(Pixel*Frame) : 0.094
Stream size : 503 MiB (60%)
Title : ☻rDX☻
Default : Yes
Forced : No

Audio
ID : 1
Format : AC-3
Format/Info : Audio Coding 3
Mode extension : CM (complete main)
Format settings, Endianness : Big
Codec ID : A_AC3
Duration : 1 h 56 min
Bit rate mode : Constant
Bit rate : 384 kb/s
Channel(s) : 6 channels
Channel positions : Front: L C R, Side: L R, LFE
Sampling rate : 48.0 kHz
Frame rate : 31.250 FPS (1536 spf)
Bit depth : 16 bits
Compression mode : Lossy
Stream size : 319 MiB (38%)
Title : ☻rDX☻
Default : Yes
Forced : No



IMDB : https://www.imdb.com/title/tt7690670


Download 18+ Superfly 2018 UNCENSORED Movies HDRip x264 5.1 with Sample ☻rDX☻ torrent


Related Torrents


Comments   (please login to add your comment!)

young and hungry s05e01 720p     muscle     phantom     soil     valentina nappi     charmane     watchdogs     pristine edge     2017 cam     kawd 812     taylor sands     dvd5nl     post     x art     2015 blacked     2013 hindi     nekane     bax     2014     amir     cadence     the blacklist s01e14     lubed     atlanta s01e02     


Home - Browse Torrents

Made with love by an Extratorrent Fan!