extratorrent2.cc - A Fan Made Alternative Login   |   Register
Important Information
Registrations are open now
-------------------------------------

Please click here to register with Extratorrent2 to recieve latest updates, add bookmarks and to post comments.

-------------------------------------

Your login details will work on both Extratorrent2.cc and Extra2.to

Friends
Friends

1) Filebebo
-------------------------------------
2) MoviesDig
-------------------------------------
3) Torrentz2.cc
-------------------------------------
4) Torrents.me

Extratorrent2 > Categories > Movies > Bon.Cop.Bad.Cop.2.2017.HDRip.XviD.AC3-EVO torrent


Browse Movies torrents

Bon.Cop.Bad.Cop.2.2017.HDRip.XviD.AC3-EVO torrent


Download torrent: Download Bon.Cop.Bad.Cop.2.2017.HDRip.XviD.AC3-EVO torrent Magnet link Bookmark Torrent: Bon.Cop.Bad.Cop.2.2017.HDRip.XviD.AC3-EVO   Bon.Cop.Bad.Cop.2.2017.HDRip.XviD.AC3-EVO torrent
Info hash: F4E5F50744882CBE74707CAAA3718BFADA62EF81
Category: Categories > Movies
Trackers:
View all torrent trackers >
Health:
 seeds: 11 ,  leechers: 27 |  Update >
Torrent language: English English
Total Size: 1.4 GB
Files List:
4    View torrent files >
Uploader:
showstopper
Torrent added: October 3, 2017, 11:02 pm
IMDB: http://www.imdb.com/title/tt4738174
Users rating: ---, not rated. please login to rate.

Download Bon.Cop.Bad.Cop.2.2017.HDRip.XviD.AC3-EVO torrent



Torrent Description

Bon.Cop.Bad.Cop.2.2017.HDRip.XviD.AC3-EVO

ImDb: http://www.imdb.com/title/tt4738174



Complete name : Bon.Cop.Bad.Cop.2.2017.HDRip.XviD.AC3-EVO.avi
Format : AVI
Format/Info : Audio Video Interleave
Format profile : OpenDML
Format settings : rec
File size : 1.39 GiB
Duration : 2 h 6 min
Overall bit rate : 1 572 kb/s
Writing application : AVI-Mux GUI 1.17.8.3, Feb 16 201019:42:50

Video
ID : 0
Format : MPEG-4 Visual
Format profile : Advanced
Format settings, BVOP : 2
Format settings, QPel : No
Format settings, GMC : No warppoints
Format settings, Matrix : Default (H.263)
Muxing mode : Packed bitstream
Codec ID : XVID
Codec ID/Hint : XviD
Duration : 2 h 6 min
Bit rate : 1 182 kb/s
Width : 720 pixels
Height : 304 pixels
Display aspect ratio : 2.35:1
Frame rate : 23.976 (24000/1001) FPS
Color space : YUV
Chroma subsampling : 4:2:0
Bit depth : 8 bits
Scan type : Progressive
Compression mode : Lossy
Bits/(Pixel*Frame) : 0.225
Stream size : 1.04 GiB (75%)
Writing library : XviD 66

Audio
ID : 1
Format : AC-3
Format/Info : Audio Coding 3
Format settings, Endianness : Big
Codec ID : 2000
Duration : 2 h 6 min
Bit rate mode : Constant
Bit rate : 384 kb/s
Channel(s) : 6 channels
Channel positions : Front: L C R, Side: L R, LFE
Sampling rate : 48.0 kHz
Frame rate : 31.250 FPS (1536 spf)
Bit depth : 16 bits
Compression mode : Lossy
Stream size : 347 MiB (24%)
Alignment : Aligned on interleaves
Interleave, duration : 64 ms (1.53 video frames)
Interleave, preload duration : 192 ms
Title : T2_Audio - English
Service kind : Complete Main






Click To View Screenshot

Click To View Screenshot

Click To View Screenshot


Download Bon.Cop.Bad.Cop.2.2017.HDRip.XviD.AC3-EVO torrent


Related Torrents


Comments   (please login to add your comment!)

russell peters     ora young     dual audio     inhumans 1x01     suicide squad nezu     hon3y     mafiaking     ted 2 dual     clover oral love     tales     anya olsen sexual curiosity     bioshock 2 remastered     legends of tomorrow     gilbert o sullivan     momsbangteens     complete     m2tv     lightroom     taken 2017     el chapo s01e01     slut puppies 4     b o b strange clouds     condition zero     psychologist     


Home - Browse Torrents - Our official mirror : extra2.to

Made with love by an Extratorrent Fan!