extratorrent2.cc - A Fan Made Alternative Login   |   Register
Important Information
Registrations are open now
-------------------------------------

Please click here to register with Extratorrent2 to recieve latest updates, add bookmarks and to post comments.

-------------------------------------

Your login details will work on both Extratorrent2.cc and Extra2.to

Friends
Friends

1) Filebebo
-------------------------------------
2) MoviesDig
-------------------------------------
3) Torrentz2.cc
-------------------------------------
4) Torrents.me

Extratorrent2 > Categories > Movies > Puss In Boots 2011 720p Esub BluRay Dual Audio English Hindi GOPISAHI torrent


Browse Movies torrents

Puss In Boots 2011 720p Esub BluRay Dual Audio English Hindi GOPISAHI torrent


Download torrent: Download Puss In Boots 2011 720p Esub BluRay Dual Audio  English Hindi GOPISAHI torrent Magnet link Bookmark Torrent: Puss In Boots 2011 720p Esub BluRay Dual Audio  English Hindi GOPISAHI   Puss In Boots 2011 720p Esub BluRay Dual Audio English Hindi GOPISAHI torrent
Info hash: C0DB863FD60EEFDF878A27B6622FFCA73286711B
Category: Categories > Movies
Trackers:
View all torrent trackers >
Health:
 seeds: 0 ,  leechers: 181 |  Update >
Torrent language: English English
Total Size: 640.7 MB
Files List:
1    View torrent files >
Uploader:
PENDUDESI
Torrent added: November 13, 2017, 2:54 am
Users rating: ---, not rated. please login to rate.

Download Puss In Boots 2011 720p Esub BluRay Dual Audio  English Hindi GOPISAHI torrent



Torrent Description


Format : Matroska
Format version : Version 4 / Version 2
File size : 641 MiB
Duration : 1 h 30 min
Overall bit rate : 993 kb/s
Movie name : Puss In Boots 2011

Video
Format : AVC
Codec ID : V_MPEG4/ISO/AVC
Duration : 1 h 30 min
Bit rate : 817 kb/s
Width : 1 280 pixels
Height : 544 pixels
Display aspect ratio : 2.35:1
Frame rate mode : Constant
Frame rate : 23.976 (24000/1001) FPS
Stream size : 527 MiB (82%)
Writing library : x264

Audio #1
Format : AAC
Duration : 1 h 30 min
Bit rate : 83.9 kb/s
Channel(s) : 6 channels
Channel positions : Front: L C R, Side: L R, LFE
Sampling rate : 44.1 kHz
Frame rate : 43.066 FPS (1024 SPF)
Stream size : 54.2 MiB (8%)
Language : English

Audio #2
Format : AAC
Duration : 1 h 30 min
Bit rate : 89.0 kb/s
Channel(s) : 6 channels
Channel positions : Front: L C R, Side: L R, LFE
Sampling rate : 44.1 kHz
Frame rate : 43.066 FPS (1024 SPF)
Stream size : 57.4 MiB (9%)
Language : Hindi

Text
Language : English



Download Puss In Boots 2011 720p Esub BluRay Dual Audio  English Hindi GOPISAHI torrent


Related Torrents


Comments   (please login to add your comment!)


Home - Browse Torrents - Our official mirror : extra2.to

Made with love by an Extratorrent Fan!